<?xml version="1.0" standalone="no"?>
<!DOCTYPE svg PUBLIC "-//W3C//DTD SVG 1.1//EN" "http://www.w3.org/Graphics/SVG/1.1/DTD/svg11.dtd" >
<svg xmlns="http://www.w3.org/2000/svg" xmlns:xlink="http://www.w3.org/1999/xlink" version="1.1">
<metadata>
Created by FontForge 20170924 at Fri Oct  8 16:14:55 1999
 By www-data
Copyright (c) 1987, 1991, 1994 Adobe Systems Incorporated.  All Rights Reserved.Freestyle Script is a trademark of Esselte Pendaflex Corporation in the USA, of Letraset Canada Ltd. in Canada, and of Esselte Letraset Ltd. elsewhere.
</metadata>
<defs>
<font id="FreestyleScript" horiz-adv-x="470" >
  <font-face 
    font-family="Freestyle Script"
    font-weight="400"
    font-style="italic"
    font-stretch="normal"
    units-per-em="1000"
    panose-1="2 11 5 0 0 0 0 0 0 0"
    ascent="706"
    descent="-294"
    x-height="328"
    cap-height="694"
    bbox="-255 -294 1000 917"
    underline-thickness="50"
    underline-position="-100"
    slope="-26"
    stemh="48"
    stemv="45"
    unicode-range="U+0020-FB02"
  />
<missing-glyph horiz-adv-x="162" 
 />
    <glyph glyph-name=".notdef" horiz-adv-x="162" 
 />
    <glyph glyph-name="space" unicode=" " horiz-adv-x="162" 
 />
    <glyph glyph-name="space" unicode="&#xa0;" horiz-adv-x="162" 
 />
    <glyph glyph-name="exclam" unicode="!" horiz-adv-x="276" 
d="M106 266l218 387c7 15 15 37 35 37c15 0 23 -14 23 -27c0 -30 -44 -102 -58 -129l-223 -382c-5 -11 -13 -25 -27 -25c-15 0 -25 19 -25 32c0 28 42 82 57 107zM24 78c15 0 25 -13 25 -27c0 -27 -17 -79 -50 -79c-15 0 -23 13 -23 27c0 23 19 79 48 79z" />
    <glyph glyph-name="quotedbl" unicode="&#x22;" horiz-adv-x="333" 
d="M154 721c24 0 35 -24 35 -51c0 -26 -13 -158 -19 -234c-2 -25 -7 -31 -16 -31s-14 6 -16 31c-6 76 -19 208 -19 234c0 27 11 51 35 51zM299 721c24 0 35 -24 35 -51c0 -26 -13 -158 -19 -234c-2 -25 -7 -31 -16 -31s-14 6 -16 31c-6 76 -19 208 -19 234c0 27 11 51 35 51
z" />
    <glyph glyph-name="dollar" unicode="$" horiz-adv-x="457" 
d="M268 332l-29 -51c55 -67 65 -109 64 -127c-3 -50 -49 -170 -217 -155c-13 -27 -17 -47 -35 -47c-8 0 -18 5 -18 14c0 10 12 30 16 43c-39 13 -71 42 -70 86c1 63 57 107 96 114c10 2 19 -6 19 -16c0 -18 -54 -35 -54 -84c0 -26 12 -41 33 -52l114 211
c-22 32 -46 68 -46 109c0 114 121 168 218 178c19 24 25 48 45 48c9 0 17 -5 17 -15c0 -8 -5 -12 -15 -33c39 -3 77 -28 77 -71c0 -95 -137 -143 -215 -152zM377 510l-75 -122c43 6 135 42 135 94c0 11 -15 38 -60 28zM215 316l13 23c-4 5 -6 8 -6 15c0 19 15 28 33 29
l71 118c-62 -7 -130 -62 -130 -128c0 -23 8 -39 19 -57zM110 46l21 -2c62 0 121 51 121 115c0 29 -22 53 -40 75z" />
    <glyph glyph-name="percent" unicode="%" horiz-adv-x="525" 
d="M342 349c-101 -103 -180 -190 -252 -317c-10 -16 -20 -40 -42 -40c-9 0 -20 9 -20 19c0 29 73 126 93 151c110 142 240 276 356 417c9 11 21 36 39 36c12 0 22 -11 22 -23c0 -41 -159 -205 -196 -243zM474 301c24 -7 34 -35 34 -58c0 -49 -24 -101 -52 -141
c-26 -37 -72 -90 -121 -90c-41 0 -55 39 -55 74c0 63 42 131 86 175c15 15 66 63 91 63c11 0 18 -12 17 -23zM430 273c-53 -43 -105 -114 -105 -185c0 -16 4 -37 25 -37c30 0 69 55 83 78c16 28 33 72 33 105c0 20 -13 42 -36 39zM223 582c24 -7 34 -35 34 -58
c0 -49 -24 -101 -52 -141c-26 -37 -72 -90 -121 -90c-41 0 -55 39 -55 74c0 63 42 131 86 175c15 15 66 63 91 63c11 0 18 -12 17 -23zM179 555c-53 -43 -105 -114 -105 -185c0 -16 4 -37 25 -37c30 0 69 55 83 78c16 28 33 72 33 105c0 20 -13 42 -36 39z" />
    <glyph glyph-name="ampersand" unicode="&#x26;" horiz-adv-x="662" 
d="M295 469l2 -35c41 21 99 69 99 118c0 19 -9 44 -31 44c-28 0 -52 -28 -61 -53c-7 -19 -9 -53 -9 -74zM99 173c0 -57 34 -107 96 -107c40 0 71 22 98 50c-28 70 -24 77 -49 244c-73 -35 -145 -100 -145 -187zM399 360l94 8c26 4 52 8 78 8c24 0 55 -6 55 -36
c0 -12 -7 -26 -21 -26c-17 0 -33 7 -53 7c-27 0 -65 -8 -92 -13l-12 -3c-16 -68 -44 -137 -88 -191c19 -34 37 -61 80 -61c26 0 48 9 68 9c13 0 23 -7 23 -21c0 -37 -73 -50 -100 -50c-52 0 -91 27 -117 71c-35 -35 -78 -64 -130 -64c-89 0 -149 72 -149 159
c0 131 92 206 204 252c-6 54 -4 91 1 119c6 28 15 46 22 59c24 41 68 73 117 73c46 0 77 -40 77 -84c0 -37 -19 -78 -42 -106c-22 -26 -55 -47 -113 -82l39 -218c26 39 50 81 59 128l-14 1c-23 1 -50 1 -50 31c0 19 14 32 32 32c11 0 21 -2 32 -2z" />
    <glyph glyph-name="quoteright" unicode="&#x2019;" horiz-adv-x="155" 
d="M266 678c4 21 10 43 37 43c18 0 24 -15 24 -30c0 -75 -101 -197 -133 -197c-12 0 -22 12 -22 24c0 13 14 24 23 32c35 31 63 81 71 128z" />
    <glyph glyph-name="parenleft" unicode="(" horiz-adv-x="377" 
d="M148 289c39 100 94 189 163 275c25 31 172 198 205 198c9 0 17 -7 17 -16c0 -15 -25 -36 -35 -45c-60 -59 -139 -154 -186 -221c-116 -166 -178 -379 -203 -567c-2 -12 -3 -38 -24 -38c-17 0 -22 12 -21 26c22 212 36 265 84 388z" />
    <glyph glyph-name="parenright" unicode=")" horiz-adv-x="377" 
d="M305 348c-39 -100 -94 -189 -163 -275c-25 -31 -172 -198 -205 -198c-9 0 -17 7 -17 16c0 15 25 36 35 45c60 59 139 154 186 221c116 166 178 379 203 567c2 12 3 38 24 38c17 0 22 -12 21 -26c-22 -212 -36 -265 -84 -388z" />
    <glyph glyph-name="asterisk" unicode="*" horiz-adv-x="436" 
d="M355 540l-24 2c10 -27 18 -39 38 -59c8 -8 24 -22 24 -35c0 -10 -9 -18 -18 -18c-33 0 -74 62 -82 92c-22 -13 -33 -25 -46 -47c-7 -11 -23 -43 -39 -43c-11 0 -21 11 -21 22c0 34 46 83 72 103c-15 14 -31 28 -49 39c-13 7 -35 17 -35 33c0 12 9 21 21 21
c29 0 67 -35 87 -55c5 16 9 32 10 50c1 16 1 54 26 54c16 0 26 -15 26 -30c0 -25 -15 -66 -22 -91c23 4 51 6 71 16c7 3 25 12 33 12c9 0 18 -9 18 -17c0 -30 -66 -49 -90 -49z" />
    <glyph glyph-name="comma" unicode="," horiz-adv-x="218" 
d="M23 33c4 21 10 43 37 43c18 0 24 -15 24 -30c0 -75 -101 -197 -133 -197c-12 0 -22 12 -22 24c0 13 14 24 23 32c35 31 63 81 71 128z" />
    <glyph glyph-name="hyphen" unicode="-" horiz-adv-x="256" 
d="M256 193h-256v57h256v-57z" />
    <glyph glyph-name="hyphen" unicode="&#xad;" horiz-adv-x="256" 
d="M256 193h-256v57h256v-57z" />
    <glyph glyph-name="period" unicode="." horiz-adv-x="218" 
d="M81 78c15 0 25 -13 25 -27c0 -27 -17 -79 -50 -79c-15 0 -23 13 -23 27c0 23 19 79 48 79z" />
    <glyph glyph-name="slash" unicode="/" horiz-adv-x="337" 
d="M1 104l387 504c34 44 57 77 87 84c17 4 28 -13 36 -28c0 -10 -7 -17 -13 -24c-92 -100 -340 -394 -519 -675c-9 -14 -16 -35 -34 -35c-17 6 -34 12 -34 24c0 25 76 130 90 150z" />
    <glyph glyph-name="zero" unicode="0" horiz-adv-x="324" 
d="M308 500c40 -12 55 -57 55 -95c0 -82 -38 -168 -83 -236c-39 -59 -113 -150 -191 -150c-64 0 -83 66 -83 119c0 91 51 190 107 259c27 32 128 140 172 140c18 0 25 -22 23 -37zM241 463c-90 -75 -173 -197 -173 -319c0 -29 8 -69 45 -69c51 0 115 91 137 132
c28 50 57 127 57 185c0 36 -25 78 -66 71z" />
    <glyph glyph-name="one" unicode="1" horiz-adv-x="248" 
d="M287 464c-67 -114 -137 -253 -206 -379c-6 -14 -20 -56 -39 -56c-13 0 -24 15 -24 27c0 42 160 348 202 394l-2 2c-21 -20 -109 -73 -135 -73c-14 0 -16 15 -16 26c0 17 9 22 24 28c38 15 73 37 107 58c16 11 65 43 84 43c13 0 26 -13 26 -27c0 -15 -13 -31 -21 -43z" />
    <glyph glyph-name="two" unicode="2" horiz-adv-x="362" 
d="M13 121c88 85 176 145 285 231c21 18 46 47 46 76c0 26 -17 44 -43 44c-68 0 -127 -76 -145 -76c-9 0 -20 11 -20 20c0 25 89 108 182 108c48 0 88 -32 88 -81c0 -83 -92 -144 -152 -187c-73 -54 -148 -108 -209 -175c50 15 104 27 156 27c22 0 65 -7 65 -36
c0 -13 -10 -26 -23 -26c-5 0 -11 2 -16 3c-17 5 -25 6 -44 6c-45 0 -75 -10 -117 -22c-16 -5 -50 -16 -66 -16c-19 0 -35 21 -35 40c0 23 33 49 48 64z" />
    <glyph glyph-name="three" unicode="3" horiz-adv-x="329" 
d="M125 317c0 28 17 36 41 42c38 10 108 37 108 85c0 21 -13 30 -33 30c-30 0 -56 -13 -80 -28c-10 -5 -19 -12 -30 -12c-10 0 -18 7 -18 17c0 17 13 28 26 37c33 23 75 43 116 43c44 0 85 -29 85 -76c0 -58 -54 -102 -102 -122c37 -13 52 -37 52 -77
c0 -104 -108 -238 -216 -238c-52 0 -95 46 -95 97c0 27 10 56 41 56c13 0 26 -4 26 -19c0 -9 -2 -18 -2 -28c0 -27 14 -51 44 -51c35 0 68 30 89 55c29 34 53 72 53 118c0 33 -17 59 -53 59c-14 0 -25 -7 -36 -7s-16 10 -16 19z" />
    <glyph glyph-name="four" unicode="4" horiz-adv-x="362" 
d="M240 239l-17 -37c-24 -50 -48 -103 -63 -156c-4 -18 -10 -31 -30 -31c-15 0 -28 13 -28 28c0 22 6 59 70 187c-39 -5 -83 -11 -118 -25c-7 -3 -16 -6 -23 -6c-16 0 -21 18 -21 31c0 16 3 25 13 36c261 272 316 283 339 283c14 0 28 -14 28 -29c0 -16 -26 -55 -35 -69
l-88 -158l26 2c17 0 52 5 52 -22c0 -10 -4 -18 -11 -25c-9 -9 -20 -8 -32 -8zM88 269l112 17c28 60 74 126 107 181l-2 2c-84 -50 -152 -126 -217 -200z" />
    <glyph glyph-name="five" unicode="5" horiz-adv-x="338" 
d="M204 518l127 13c24 0 70 4 70 -30c0 -15 -9 -23 -24 -23l-128 -8c-43 -38 -86 -79 -112 -130c26 11 54 21 83 21c53 0 92 -29 92 -84c0 -128 -154 -263 -236 -259c-58 3 -88 50 -88 103c0 28 12 78 48 78c7 0 19 -4 19 -13c0 -4 -1 -9 -3 -12c-3 -10 -5 -29 -5 -39
c0 -29 15 -63 49 -63c37 0 78 35 100 62c28 34 52 79 52 123c0 33 -17 53 -50 53c-26 0 -56 -11 -79 -24c-7 -4 -18 -11 -26 -11c-15 0 -30 25 -30 38c0 33 87 138 115 160c-4 6 -11 15 -11 22c0 19 23 21 37 23z" />
    <glyph glyph-name="six" unicode="6" horiz-adv-x="343" 
d="M236 346c52 0 81 -29 81 -82c0 -103 -116 -247 -223 -247c-66 0 -102 59 -102 119c0 96 69 194 137 258c30 28 148 121 189 121c11 0 20 -6 20 -17c0 -14 -11 -21 -21 -27c-73 -39 -139 -91 -192 -153l1 1l2 -2c32 13 69 29 108 29zM212 302c-43 0 -94 -24 -130 -48
c-19 -29 -33 -66 -33 -102c0 -32 16 -81 56 -83c75 -3 152 112 152 186c0 27 -16 47 -45 47z" />
    <glyph glyph-name="seven" unicode="7" horiz-adv-x="296" 
d="M375 498c0 -20 -11 -33 -24 -46c-111 -120 -198 -230 -278 -374c-10 -19 -30 -68 -57 -68c-11 0 -20 11 -20 21c4 61 176 301 313 440l-2 2c-47 -16 -167 -30 -192 -30c-18 0 -38 3 -38 24c0 14 11 30 26 30c10 0 20 -2 30 -2c50 0 136 15 184 28c9 2 21 4 30 4
c18 0 28 -12 28 -29z" />
    <glyph glyph-name="eight" unicode="8" horiz-adv-x="338" 
d="M203 308c-63 -32 -164 -100 -164 -179c0 -15 1 -28 13 -39c13 -10 29 -17 46 -17c74 0 146 81 146 154c0 32 -17 61 -41 81zM71 22c-53 0 -102 41 -102 96c0 100 122 181 199 225c-23 22 -46 46 -46 81c0 77 88 122 156 122c46 0 83 -30 83 -77c0 -62 -64 -102 -110 -133
c27 -26 53 -63 53 -103c0 -110 -128 -211 -233 -211zM218 374c31 16 80 52 80 90c0 23 -18 38 -40 38c-32 0 -76 -27 -76 -63c0 -26 22 -45 36 -65z" />
    <glyph glyph-name="nine" unicode="9" horiz-adv-x="323" 
d="M233 252c-32 -16 -73 -36 -110 -36c-53 0 -83 43 -83 94c0 105 115 243 224 243c60 0 97 -41 95 -100c-3 -109 -69 -235 -196 -366c-14 -15 -61 -67 -85 -67c-9 0 -18 9 -18 19c0 13 11 22 20 30c58 48 118 115 153 183zM148 270c37 0 85 22 116 42c18 37 36 80 36 122
c0 38 -9 71 -53 71c-40 0 -82 -37 -105 -66c-26 -34 -46 -73 -46 -116c0 -34 18 -53 52 -53z" />
    <glyph glyph-name="colon" unicode=":" horiz-adv-x="218" 
d="M60 78c15 0 25 -13 25 -27c0 -27 -17 -79 -50 -79c-15 0 -23 13 -23 27c0 23 19 79 48 79zM162 334c15 0 25 -13 25 -27c0 -27 -17 -79 -50 -79c-15 0 -23 13 -23 27c0 23 19 79 48 79z" />
    <glyph glyph-name="semicolon" unicode=";" horiz-adv-x="218" 
d="M23 35c4 21 10 43 37 43c18 0 24 -15 24 -30c0 -75 -101 -197 -133 -197c-12 0 -22 12 -22 24c0 13 14 24 23 32c35 31 63 81 71 128zM163 334c15 0 25 -13 25 -27c0 -27 -17 -79 -50 -79c-15 0 -23 13 -23 27c0 23 19 79 48 79z" />
    <glyph glyph-name="question" unicode="?" horiz-adv-x="387" 
d="M189 229c-9 -18 -18 -42 -42 -42c-12 0 -23 6 -23 18c0 23 24 70 37 89c44 65 115 116 178 161c48 33 124 79 124 144c0 30 -25 47 -53 47c-110 0 -182 -126 -215 -126c-11 0 -20 9 -20 19c1 45 115 149 226 150c55 0 107 -36 107 -95c0 -80 -107 -157 -165 -199
c-74 -54 -113 -82 -154 -166zM121 78c15 0 25 -13 25 -27c0 -27 -17 -79 -50 -79c-15 0 -23 13 -23 27c0 23 19 79 48 79z" />
    <glyph glyph-name="A" unicode="A" 
d="M362 324l-195 -54c-176 -284 -89 -140 -141 -231c-28 -49 -46 -54 -57 -48c-12 7 -17 13 -13 30c5 15 14 39 128 219c-18 -3 -64 -26 -76 -26c-14 0 -21 11 -21 24c0 28 2 20 146 75c246 328 341 396 360 396c42 0 46 -28 21 -90c-29 -73 -54 -150 -72 -227
c55 0 67 2 67 -21c0 -20 -14 -32 -33 -32c-16 0 -33 1 -48 -4c-29 -113 -54 -264 -54 -299c0 -18 5 -48 -22 -48c-26 0 -34 31 -34 52c0 96 28 190 44 284zM215 339l162 41c-1 -5 27 83 78 231c-17 -11 -31 8 -240 -272z" />
    <glyph glyph-name="B" unicode="B" horiz-adv-x="472" 
d="M41 73l-3 -7c75 -48 189 -15 249 50c34 39 68 104 68 156c0 70 -63 109 -133 93c-25 -4 -28 -3 -37 16c-61 -96 -108 -201 -144 -308zM269 621c-21 -3 -91 -42 -102 -42c-8 0 -17 8 -20 19s1 25 19 35c60 33 162 72 230 72c60 0 125 -28 125 -97
c0 -110 -136 -177 -227 -204c67 -20 116 -78 116 -149c0 -24 -4 -47 -11 -68c-35 -110 -151 -191 -265 -191c-39 0 -76 10 -110 27c-4 -7 -5 -18 -8 -27s-8 -16 -18 -16c-20 0 -36 23 -34 42c7 64 114 312 305 599zM472 604c0 44 -51 68 -150 34c12 -7 13 -19 -8 -52
c-24 -39 -14 -17 -97 -151c72 8 255 86 255 169z" />
    <glyph glyph-name="C" unicode="C" horiz-adv-x="441" 
d="M154 461c57 81 189 242 291 241c92 -1 89 -118 5 -234c-12 -17 -61 -78 -87 -78c-12 0 -56 23 4 70c72 53 110 129 110 165c0 18 -6 34 -27 34c-92 0 -380 -327 -380 -539c0 -44 27 -89 75 -89c78 0 197 143 231 208c14 25 30 15 30 3c0 -36 -148 -261 -285 -261
c-62 0 -110 40 -115 120c-4 81 36 201 148 360z" />
    <glyph glyph-name="D" unicode="D" horiz-adv-x="487" 
d="M176 467l65 120c-18 -7 -41 -36 -59 -36c-10 0 -22 11 -22 22c0 20 83 115 220 115c85 0 151 -61 151 -147c0 -252 -300 -567 -476 -569c-31 0 -60 18 -60 52c0 70 140 368 181 443zM222 100c117 105 256 297 256 450c0 79 -75 118 -188 61c19 -11 19 -14 1 -49
c-220 -429 -221 -468 -228 -516c-2 -13 6 -20 20 -20c42 0 109 47 139 74z" />
    <glyph glyph-name="E" unicode="E" horiz-adv-x="416" 
d="M220 422l50 9c161 30 162 10 162 -9c0 -53 -58 -8 -246 -60c-52 -85 -95 -178 -127 -272c264 95 278 35 278 23c0 -27 -26 -24 -46 -24c-74 -1 -160 -23 -225 -58c-11 -6 -28 -17 -42 -17c-19 0 -35 23 -35 40c0 32 100 274 213 446l79 121c-13 1 -20 14 -20 27
c0 20 14 24 31 29c72 22 204 37 280 37c18 0 47 0 47 -25c0 -21 -19 -32 -44 -32c-80 0 -161 -6 -237 -27c10 -11 7 -18 -9 -40c-32 -45 12 24 -109 -168z" />
    <glyph glyph-name="F" unicode="F" horiz-adv-x="415" 
d="M62 94l-16 -50c-4 -12 -9 -27 -25 -27c-18 0 -32 22 -32 39c0 39 74 198 96 237c61 108 247 419 188 321c-11 0 -17 10 -17 19c0 32 50 40 72 46c60 15 158 34 219 34c19 0 61 -3 61 -29c0 -15 -11 -30 -26 -30c-33 0 -32 6 -52 6c-20 -1 -61 -7 -178 -33
c-52 -64 -96 -135 -135 -207c85 18 153 26 181 19c21 -5 17 -16 17 -20c0 -51 -37 -7 -237 -65c-46 -83 -84 -171 -116 -260z" />
    <glyph glyph-name="G" unicode="G" horiz-adv-x="422" 
d="M188 14l55 102l-2 2c-40 -27 -87 -63 -139 -63c-57 0 -88 60 -88 111c0 110 85 242 153 326c60 74 196 220 297 220c73 0 116 -109 0 -247c-21 -25 -81 -92 -116 -92c-13 0 -25 11 -25 24c0 12 15 24 23 31c36 28 68 59 95 96c78 103 65 146 26 146
c-50 0 -193 -114 -301 -279c-163 -245 -73 -283 -39 -283c76 0 198 141 220 141c15 0 38 -18 5 -67c-55 -73 -152 -262 -175 -350c-6 -22 -11 -43 -38 -43c-17 0 -67 10 49 225z" />
    <glyph glyph-name="H" unicode="H" horiz-adv-x="485" 
d="M46 198l30 70l-20 -8c-28 -12 -41 -10 -41 14c0 20 0 28 94 59c48 90 -19 -33 183 335c6 14 17 43 25 56c10 15 23 20 33 18c11 -2 19 -11 19 -24c0 -51 -115 -240 -147 -292l-36 -68c74 22 174 50 218 60l145 243l18 29c12 19 25 24 35 20c9 -3 16 -14 16 -27
c0 -25 -31 -69 -44 -90l-101 -164c48 0 63 0 63 -18c0 -26 -22 -34 -42 -34l-49 -5c-169 -302 -135 -384 -169 -374c-17 5 -35 26 -33 43c10 81 63 169 126 316l-219 -67c-67 -134 -93 -208 -105 -276c-2 -13 -6 -29 -23 -29c-29 0 -60 23 24 213z" />
    <glyph glyph-name="I" unicode="I" horiz-adv-x="238" 
d="M304 544c-210 -306 -240 -444 -250 -489c-3 -15 -8 -37 -28 -37c-16 0 -28 18 -28 33c0 49 51 176 82 229c92 158 197 351 268 414c15 13 35 -10 35 -22c0 -25 -51 -88 -79 -128z" />
    <glyph glyph-name="J" unicode="J" horiz-adv-x="449" 
d="M525 653l-4 -9c-60 -157 -241 -623 -439 -623c-60 0 -91 58 -91 112c0 164 137 308 165 308c4 0 36 -7 2 -48c-173 -227 -96 -320 -52 -320c65 0 126 100 154 149l203 423c-46 -10 -94 -18 -138 -35c-30 -15 -51 -3 -51 19c0 20 12 27 29 33c83 31 172 46 261 47
c21 0 81 3 81 -30c0 -35 -47 -26 -120 -26z" />
    <glyph glyph-name="K" unicode="K" horiz-adv-x="488" 
d="M427 526l-123 -85c-34 -170 -19 -54 -40 -297c0 -8 1 -23 4 -35c4 -13 10 -24 22 -24c44 0 112 137 134 137c8 0 13 -8 13 -15c0 -21 -29 -61 -39 -78c-40 -61 -84 -101 -123 -102c-38 -1 -68 36 -68 124c2 51 1 97 50 313l-2 2c-77 -150 -189 -294 -220 -440
c-3 -14 -9 -31 -27 -31c-20 0 -27 17 -27 34c0 33 47 179 183 387c93 142 124 213 140 257c7 18 15 50 39 50c18 0 57 -3 -74 -238c127 73 224 132 269 151c14 6 47 24 62 24c14 0 23 -12 23 -25c0 -25 -26 -30 -45 -37c-41 -13 -112 -50 -151 -72z" />
    <glyph glyph-name="L" unicode="L" horiz-adv-x="326" 
d="M130 293c-39 -67 -79 -135 -101 -210c197 59 230 51 230 14c0 -39 -50 -25 -57 -25c-42 0 -92 -17 -130 -34c-20 -9 -36 -16 -70 -22c-27 -5 -51 21 -37 62c33 100 91 210 225 401l109 149c12 16 37 55 59 55c12 0 27 -11 24 -23c-10 -40 -200 -278 -252 -367z" />
    <glyph glyph-name="M" unicode="M" horiz-adv-x="600" 
d="M442 628l-106 -215c-33 -67 -59 -138 -71 -210l2 -2c39 47 217 331 332 463c18 20 48 60 77 60c20 0 31 -6 32 -23c2 -37 -104 -210 -110 -220c-45 -80 -160 -332 -160 -417c0 -3 4 -22 2 -40s-10 -35 -32 -35c-25 0 -31 34 -31 54c0 125 123 363 243 570l-2 2
c-86 -95 -162 -202 -231 -311l-57 -89c-91 -142 -124 -71 -124 -40c0 117 97 301 153 404l-2 2c-65 -67 -116 -147 -160 -229l-149 -278c-20 -38 -34 -109 -77 -113c-10 -1 -29 3 -6 55l30 70c49 117 128 258 205 362c72 98 176 248 218 258c23 5 58 -12 24 -78z" />
    <glyph glyph-name="N" unicode="N" horiz-adv-x="526" 
d="M311 166l1 -50h2l154 339l93 173c15 27 50 98 87 98c23 0 27 -13 -19 -82c-106 -168 -199 -344 -263 -532c-12 -36 -34 -113 -83 -113c-17 0 -24 15 -28 32c-6 35 -7 231 66 529l-2 2c-85 -102 -212 -330 -263 -487c-8 -27 -20 -84 -58 -84c-12 0 -19 12 -19 23
c0 34 78 215 201 410c78 124 156 274 210 271c11 -1 28 -10 13 -41c-48 -126 -92 -354 -92 -488z" />
    <glyph glyph-name="O" unicode="O" 
d="M356 597l-26 -27c-218 -228 -257 -384 -257 -458c0 -30 11 -59 46 -59c99 0 365 328 365 505c0 52 -32 88 -84 88l-32 -2c16 -16 10 -25 -12 -47zM544 564c0 -110 -84 -248 -148 -335c-58 -78 -193 -240 -296 -240c-59 0 -87 58 -87 110c0 182 190 429 328 540
c-33 -4 -62 -20 -91 -36c-5 -2 -12 -6 -18 -6c-5 0 -60 24 16 63c66 34 125 47 172 41c77 -10 123 -62 124 -137z" />
    <glyph glyph-name="P" unicode="P" horiz-adv-x="464" 
d="M318 601l-117 -258c147 -34 321 142 321 233c0 60 -94 83 -204 25zM174 287l-90 -203l-21 -58c-4 -13 -11 -35 -28 -35s-29 17 -29 33c0 40 63 171 82 212l32 67c-38 31 -21 66 28 56c7 14 84 158 98 200c-18 -7 -32 -19 -52 -23c0 -1 -94 18 83 111c9 19 7 50 34 50
c15 0 27 -11 25 -26c140 51 225 -3 224 -99c1 -81 -58 -160 -117 -207c-73 -58 -180 -97 -269 -78z" />
    <glyph glyph-name="Q" unicode="Q" 
d="M246 136c97 87 238 288 238 422c0 52 -32 88 -84 88l-32 -2c16 -16 10 -26 -12 -47c-136 -134 -245 -308 -265 -394c24 12 44 20 71 20c46 0 74 -48 84 -87zM77 149l-3 -35c0 -26 10 -60 41 -60c26 0 62 18 80 36c-5 35 -19 84 -61 84c-19 0 -42 -14 -57 -25zM544 564
c0 -110 -84 -248 -148 -336c-38 -52 -90 -101 -135 -152c19 -63 40 -184 125 -184c42 0 60 28 73 28c9 0 17 -11 17 -20c0 -26 -46 -67 -109 -67c-103 0 -130 122 -156 200c-33 -19 -67 -44 -111 -44c-59 0 -87 58 -87 110c0 182 190 429 328 540c-48 -6 -93 -42 -109 -42
c-5 0 -60 24 16 63c66 34 125 47 172 41c77 -10 123 -62 124 -137z" />
    <glyph glyph-name="R" unicode="R" horiz-adv-x="465" 
d="M343 616l-123 -238c109 -8 183 38 240 85c53 42 70 97 71 121c1 45 -54 99 -188 32zM223 323l-30 1c5 -22 1 -27 124 -265c6 -12 17 -24 17 -38c0 -13 -19 -27 -31 -27s-23 14 -31 28c-33 67 -70 146 -115 245l-94 -209l-11 -31c-6 -18 -11 -27 -32 -27
c-14 0 -25 11 -25 24c0 45 103 251 134 300c-18 55 6 81 39 64l51 88c21 35 40 73 55 112c-9 -3 -27 -16 -46 -14v-2c19 0 -64 26 77 89c8 37 22 47 35 46s25 -12 29 -20c71 24 123 17 157 -4s51 -56 51 -91c0 -85 -52 -154 -120 -199c-68 -46 -153 -70 -234 -70z" />
    <glyph glyph-name="S" unicode="S" horiz-adv-x="415" 
d="M94 239c14 0 24 -10 24 -24c0 -35 -70 -14 -70 -83c0 -109 233 -72 233 39c0 76 -115 160 -115 257c0 74 43 135 96 182s134 94 206 94c43 0 80 -23 80 -69c0 -61 -57 -117 -101 -152c-28 -22 -95 -68 -131 -68c-22 0 -52 35 7 56c36 12 71 31 101 54
c93 75 82 130 36 130s-109 -34 -145 -62c-44 -33 -94 -95 -94 -154c0 -99 119 -188 119 -270c0 -97 -118 -152 -202 -152c-207 0 -172 222 -44 222z" />
    <glyph glyph-name="T" unicode="T" horiz-adv-x="476" 
d="M379 627c-123 -19 -190 -42 -190 -43c-43 -11 -55 1 -55 21c0 31 42 35 63 41c147 40 298 65 451 65c71 0 74 -10 74 -26c0 -21 -7 -26 -81 -31c-121 -8 -182 -9 -218 -17c21 -8 15 -21 -3 -51c-86 -123 -256 -430 -287 -571c-3 -12 -8 -32 -24 -32c-21 0 -35 21 -35 40
c0 46 73 194 96 241c117 210 190 332 209 363z" />
    <glyph glyph-name="U" unicode="U" horiz-adv-x="549" 
d="M174 136l109 137l273 345l45 49c10 10 18 16 32 16c12 0 23 -11 23 -23c0 -14 -15 -36 -23 -47c-64 -88 -111 -173 -157 -274c-34 -75 -93 -215 -97 -296c0 -15 3 -43 -19 -43c-35 0 -59 39 8 217c68 166 78 172 110 231l-2 2l-144 -190l-40 -54
c-40 -54 -154 -213 -222 -213c-41 0 -58 48 -58 82c0 107 89 279 147 369c28 44 174 255 220 255c9 0 46 -19 -3 -64c-145 -165 -168 -203 -224 -307c-110 -208 -91 -267 -64 -267c28 0 69 56 86 75z" />
    <glyph glyph-name="V" unicode="V" horiz-adv-x="438" 
d="M131 35c111 187 221 388 340 543c20 26 40 51 60 77c11 13 24 28 43 28c10 0 39 -11 -12 -75c-251 -343 -322 -478 -375 -577c-41 -78 -51 -70 -61 -70c-47 0 -53 63 -53 97c0 151 80 433 141 572c11 24 22 69 54 69c30 0 31 -17 10 -72c-64 -152 -148 -400 -148 -563z
" />
    <glyph glyph-name="W" unicode="W" horiz-adv-x="587" 
d="M90 60l78 118l120 197c16 25 49 87 83 87c28 0 19 -22 13 -40c-41 -83 -75 -211 -75 -303c0 -19 1 -37 5 -56c37 48 62 106 134 253c115 234 228 410 271 410c4 0 21 -4 21 -18c0 -9 -6 -22 -20 -40l-24 -31c-113 -146 -193 -315 -272 -481l-56 -114
c-17 -30 -31 -58 -68 -58c-23 0 -53 12 -52 98c0 41 7 98 25 178l-2 2c-129 -202 -165 -299 -209 -299c-30 0 -38 27 -38 65c0 56 38 224 202 614c10 24 15 57 48 57c16 0 22 -8 22 -23c0 -106 -154 -302 -208 -614z" />
    <glyph glyph-name="X" unicode="X" horiz-adv-x="453" 
d="M239 325l-143 -155c-154 -172 -120 -183 -157 -183c-14 0 -24 14 -24 27c0 34 181 234 190 243l128 140c-3 119 -10 212 -32 281c-2 6 -7 17 -7 23c0 13 16 23 27 23c15 0 21 -5 26 -18c18 -46 33 -160 40 -252c105 106 214 206 284 249c16 10 29 -13 29 -26
c0 -27 -45 -57 -64 -73l-245 -226c9 -362 59 -375 59 -416c0 -15 -16 -29 -30 -29c-32 0 -39 37 -44 61c-20 102 -32 204 -37 331z" />
    <glyph glyph-name="Y" unicode="Y" horiz-adv-x="435" 
d="M281 280l57 94l-2 2c-68 -58 -139 -153 -212 -158c-37 0 -53 38 -53 70c0 146 219 398 297 405c11 1 21 -8 21 -19c0 -40 -77 -50 -171 -175c-28 -39 -88 -146 -88 -192c0 -12 8 -24 20 -24c30 0 132 71 248 217c50 63 100 127 150 190c10 12 26 31 42 31
c15 0 23 -18 23 -31c0 -16 -10 -30 -19 -42c-144 -182 -284 -388 -375 -629c-8 -21 -16 -59 -45 -59c-15 0 -25 9 -25 25c0 58 99 240 132 295z" />
    <glyph glyph-name="Z" unicode="Z" horiz-adv-x="406" 
d="M443 664l-184 -21c-19 0 -67 9 -67 35c0 13 13 27 26 27c11 0 18 -11 59 -11c65 0 132 10 195 22c24 4 48 8 72 8c19 0 42 -5 42 -29c0 -25 -37 -46 -53 -60c-147 -129 -311 -277 -427 -424c-39 -46 -80 -93 -107 -148c68 5 134 31 197 54c25 9 85 31 109 31
c16 0 25 -10 25 -26c0 -24 -22 -27 -42 -31c-96 -15 -224 -84 -288 -84c-32 0 -57 19 -57 53c0 36 38 79 59 106c138 176 300 348 484 503z" />
    <glyph glyph-name="bracketleft" unicode="[" horiz-adv-x="400" 
d="M279 386l-32 -78c-43 -109 -82 -225 -110 -353c35 28 83 48 96 46c33 -1 36 -13 36 -21c0 -34 -25 -21 -42 -30c-48 -26 -66 -37 -84 -59c-10 -7 -25 -21 -38 -21c-17 0 -31 29 -31 50c0 40 90 343 190 567l68 152c16 30 29 82 65 102c16 9 50 -18 94 -2
c16 6 28 16 38 19c11 4 20 1 29 -20c2 -7 2 -33 -29 -43c-29 -9 -77 -26 -125 -16c-45 -105 -85 -196 -125 -293z" />
    <glyph glyph-name="bracketright" unicode="]" horiz-adv-x="400" 
d="M198 246l32 78c43 109 81 225 110 351l-2 2c-33 -28 -81 -48 -94 -46c-33 1 -36 13 -36 21c0 33 25 21 41 30c49 26 67 37 85 59c10 7 25 21 38 21c17 0 31 -29 31 -50c0 -40 -90 -343 -191 -567l-67 -152c-16 -30 -29 -83 -65 -103c-16 -8 -50 19 -94 3
c-16 -6 -28 -16 -38 -19c-11 -4 -20 0 -29 20c-3 6 -2 33 29 43c29 9 77 26 125 16c45 105 85 195 125 293z" />
    <glyph glyph-name="underscore" unicode="_" horiz-adv-x="500" 
d="M500 -125h-500v50h500v-50z" />
    <glyph glyph-name="quoteleft" unicode="&#x2018;" horiz-adv-x="155" 
d="M181 537c-4 -21 -10 -43 -37 -43c-18 0 -24 15 -24 30c0 75 101 197 133 197c12 0 22 -12 22 -24c0 -13 -14 -24 -23 -32c-35 -31 -63 -81 -71 -128z" />
    <glyph glyph-name="a" unicode="a" horiz-adv-x="273" 
d="M148 94l2 29l-2 2c-19 -35 -51 -90 -97 -90c-37 0 -53 36 -53 68c0 93 102 269 205 269c22 0 49 -15 49 -40c0 -12 -4 -21 -9 -32c5 -6 8 -11 8 -19c0 -13 -9 -25 -15 -35c-18 -30 -46 -101 -46 -136c0 -21 7 -37 26 -46c11 -5 21 -11 21 -25s-12 -23 -25 -23
c-36 0 -64 31 -64 78zM214 295c-6 11 -14 22 -29 22c-62 0 -135 -142 -135 -196c0 -12 5 -27 20 -27c58 4 108 180 144 201z" />
    <glyph glyph-name="b" unicode="b" horiz-adv-x="294" 
d="M59 103c23 -34 71 -37 133 67c56 87 47 125 23 125c-61 0 -137 -143 -156 -192zM6 94l229 450c40 98 68 111 79 114c14 0 26 -16 26 -29c0 -18 -20 -44 -29 -57l-149 -259l2 -2c18 18 48 37 75 37c32 0 50 -29 50 -58c0 -82 -109 -258 -197 -258c-21 0 -40 6 -53 23
c-8 -11 -11 -37 -28 -37c-11 0 -23 15 -23 26c0 14 13 38 18 50z" />
    <glyph glyph-name="c" unicode="c" horiz-adv-x="289" 
d="M202 359c25 0 38 -19 38 -44c0 -39 -41 -103 -68 -103c-5 0 -34 13 0 42c24 24 34 54 17 54c-37 0 -137 -126 -139 -198c0 -18 13 -34 32 -34c49 0 114 73 141 110c28 39 38 6 38 1c0 -17 -35 -56 -45 -67c-35 -40 -87 -92 -144 -92c-44 0 -74 30 -73 74
c2 116 135 257 203 257z" />
    <glyph glyph-name="d" unicode="d" horiz-adv-x="276" 
d="M220 341l109 203c50 93 68 114 79 114c14 0 26 -16 26 -29c0 -18 -20 -44 -29 -57c-52 -84 -200 -332 -200 -444c0 -65 33 -54 33 -75c0 -13 -8 -26 -21 -28c-13 -1 -30 8 -48 38c-11 19 -10 45 -11 66c-18 -33 -62 -97 -103 -97s-57 48 -57 82c0 88 84 240 183 240
c15 0 26 -4 39 -13zM202 299c-69 49 -158 -107 -157 -172c1 -41 41 -93 157 172z" />
    <glyph glyph-name="e" unicode="e" horiz-adv-x="289" 
d="M62 179c35 11 61 29 87 57c11 12 34 38 34 56c0 7 -4 11 -11 11c-17 0 -43 -22 -65 -49c-22 -26 -41 -57 -45 -75zM194 357c20 0 38 -15 38 -36c0 -60 -81 -156 -181 -182c-5 -31 17 -48 47 -48c86 0 154 116 174 116c7 0 15 -7 14 -14c-3 -35 -130 -157 -212 -154
c-45 2 -77 29 -77 77c0 126 140 241 197 241z" />
    <glyph glyph-name="f" unicode="f" horiz-adv-x="269" 
d="M8 108l39 91c-13 -3 -24 5 -21 21c4 15 21 38 63 63c124 247 231 406 277 406c11 0 20 -7 20 -18c0 -12 -11 -24 -18 -33c-82 -94 -151 -199 -207 -311c131 57 171 19 171 -9c0 -14 -13 -35 -50 -17c-11 7 -16 10 -29 10c-38 0 -92 -24 -124 -47c47 -12 108 -115 9 -340
c-25 -57 -83 -171 -150 -171c-43 0 -57 44 -57 80c0 80 44 201 77 275zM107 216l-7 -13l-77 -187c-39 -94 -61 -203 -16 -203c31 0 81 102 88 117c95 208 43 286 12 286z" />
    <glyph glyph-name="g" unicode="g" horiz-adv-x="322" 
d="M161 204c-9 9 -9 16 0 22c38 32 76 99 41 99c-39 0 -152 -139 -152 -201c0 -41 62 -12 111 80zM-75 -204c47 0 118 144 138 183c-51 -18 -158 -104 -158 -162c0 -11 8 -21 20 -21zM251 277c6 -7 9 -10 11 -13c1 -4 0 -7 -5 -14c-38 -50 -66 -109 -93 -163l2 -2
c52 39 99 83 137 151c16 23 29 11 29 1c0 -24 -46 -85 -60 -102c-38 -46 -90 -86 -142 -117l-4 -7c-34 -71 -120 -265 -211 -265c-37 0 -58 22 -58 60c0 115 151 185 237 232c24 48 15 26 35 74l-2 2c-76 -92 -130 -56 -130 -4c0 90 130 270 227 270c20 0 35 -10 40 -27
c6 -18 4 -37 -13 -76z" />
    <glyph glyph-name="h" unicode="h" horiz-adv-x="330" 
d="M17 139l197 405c40 98 68 111 79 114c14 0 26 -16 26 -29c0 -18 -20 -44 -29 -57l-114 -198c-19 -40 -42 -80 -60 -121l2 -2c21 27 110 100 143 100c10 0 22 -3 26 -13c4 -11 1 -28 -20 -56s-84 -122 -84 -157c0 -9 4 -15 14 -15c42 0 92 119 117 119c11 0 28 -6 -24 -83
c-44 -66 -84 -95 -113 -99c-30 -5 -48 15 -48 46c0 62 49 131 79 183c-39 -20 -130 -100 -178 -230c-13 -35 -43 -20 -43 5c0 21 21 68 30 88z" />
    <glyph glyph-name="i" unicode="i" horiz-adv-x="139" 
d="M-15 48c0 61 128 301 163 301c10 0 19 -8 19 -19c0 -22 -81 -102 -129 -264c-5 -17 -9 -42 -31 -42c-13 0 -22 12 -22 24zM245 540c15 0 24 -10 24 -24c0 -26 -36 -73 -63 -73c-14 0 -23 10 -23 24c0 25 36 73 62 73z" />
    <glyph glyph-name="j" unicode="j" horiz-adv-x="235" 
d="M-8 36l131 271c8 16 28 44 48 44c10 0 22 -9 22 -19s-16 -32 -22 -40c-45 -65 -79 -139 -110 -212c51 32 88 74 121 124c5 7 13 20 23 20c8 0 15 -8 15 -16c0 -28 -42 -76 -60 -94c-38 -38 -82 -70 -129 -96c-45 -80 -112 -289 -225 -289c-33 0 -61 25 -61 59
c0 59 56 126 98 162c40 33 101 66 149 86zM-37 -19c-59 -20 -169 -116 -169 -179c0 -15 8 -22 22 -22c58 0 124 155 147 201zM265 538c15 0 24 -10 24 -25c0 -25 -35 -72 -63 -72c-14 0 -23 10 -23 24c0 24 36 73 62 73z" />
    <glyph glyph-name="k" unicode="k" horiz-adv-x="375" 
d="M128 277l-40 -76l2 -2c27 32 57 64 91 90c22 16 88 52 115 52c10 0 17 -9 17 -18c0 -14 -11 -20 -23 -23c-29 -9 -56 -21 -80 -39c-15 -38 -34 -83 -34 -124c0 -21 8 -55 35 -55c47 0 107 71 132 108c7 9 13 20 26 20c7 0 12 -5 12 -12c0 -17 -36 -65 -46 -77
c-31 -42 -83 -93 -139 -93c-52 0 -67 55 -67 99c0 26 6 51 12 77c-36 -32 -62 -74 -87 -114c-9 -14 -28 -52 -48 -52c-11 0 -19 13 -19 22c0 42 128 283 155 331c41 69 190 294 275 294c19 0 33 -18 33 -37c0 -118 -228 -310 -322 -371zM165 350c55 36 105 82 149 131
c19 22 83 102 83 131c0 7 -3 13 -11 13c-53 0 -196 -223 -221 -275z" />
    <glyph glyph-name="l" unicode="l" horiz-adv-x="227" 
d="M106 220l-11 -13c-8 -20 -29 -74 -29 -94c0 -8 4 -14 12 -14c29 0 66 58 80 81c7 11 17 33 33 33c8 0 13 -7 13 -15c0 -21 -85 -158 -148 -158c-27 0 -43 21 -43 46c0 109 257 607 371 607c22 0 38 -17 38 -40c0 -65 -83 -179 -123 -231c-61 -81 -119 -135 -193 -202z
M133 294c60 49 110 110 154 173c19 27 82 122 82 155c0 7 -4 11 -11 11c-25 0 -77 -71 -124 -149s-91 -162 -101 -190z" />
    <glyph glyph-name="m" unicode="m" horiz-adv-x="375" 
d="M89 212c23 26 112 109 142 109c10 0 21 -7 21 -18c0 -20 -51 -66 -56 -92c29 30 124 121 163 121c13 0 25 -7 25 -21s-13 -28 -22 -37c-38 -39 -98 -108 -98 -164c0 -20 3 -30 15 -45c5 -6 12 -12 12 -21c0 -13 -11 -25 -24 -25c-34 0 -49 58 -49 83c0 53 26 99 58 138
l-2 2c-56 -44 -110 -114 -143 -179c-6 -12 -12 -23 -28 -23c-11 0 -17 7 -17 19c0 37 48 131 69 165l-2 2c-54 -43 -96 -103 -123 -168c-7 -16 -15 -42 -37 -42c-12 0 -18 11 -18 22c0 49 115 307 162 307c9 0 16 -8 16 -17c0 -16 -59 -91 -64 -116z" />
    <glyph glyph-name="n" unicode="n" horiz-adv-x="271" 
d="M136 329c12 0 22 -10 22 -22c0 -22 -42 -66 -48 -88l2 -2c25 29 115 118 152 118c13 0 21 -9 21 -24c-1 -34 -111 -113 -116 -237c0 -43 22 -59 22 -72c0 -11 -10 -21 -21 -21c-40 0 -50 62 -50 92c0 52 24 108 52 149l-2 2c-52 -34 -88 -86 -118 -141
c-8 -14 -21 -45 -42 -45c-15 0 -23 11 -23 25c0 16 12 41 19 56c18 36 99 210 130 210z" />
    <glyph glyph-name="o" unicode="o" horiz-adv-x="245" 
d="M207 373c32 0 44 -21 44 -51c0 -56 -31 -119 -59 -167c-27 -47 -77 -121 -138 -121c-34 0 -51 31 -51 62c0 58 34 130 68 176c28 37 86 101 136 101zM156 178c-5 4 -14 10 -14 17s63 65 63 104c0 10 -5 18 -15 18c-26 0 -75 -61 -89 -80c-20 -28 -48 -83 -48 -118
c0 -13 6 -27 22 -27c34 0 70 56 81 86z" />
    <glyph glyph-name="p" unicode="p" horiz-adv-x="278" 
d="M25 57l-51 -111l-75 -180c-3 -10 -13 -36 -26 -36s-23 15 -23 26c0 35 90 229 109 270l159 303l26 45c7 13 18 34 34 34c11 0 19 -10 19 -20c0 -15 -10 -30 -18 -42l-18 -30l2 -2c19 13 42 29 68 29c33 0 47 -20 47 -52c0 -87 -113 -252 -207 -252c-19 0 -32 7 -46 18z
M68 144l-23 -44c7 -9 18 -12 28 -12c46 0 89 59 112 94c13 21 39 69 39 95c0 12 -8 19 -20 19c-23 0 -56 -31 -70 -47c-28 -30 -47 -69 -66 -105z" />
    <glyph glyph-name="q" unicode="q" horiz-adv-x="268" 
d="M264 317l-1 -14c7 -3 15 -6 15 -15c0 -8 -6 -17 -10 -24l-110 -235c-39 -87 -87 -196 -111 -287c-3 -13 -9 -36 -26 -36c-15 0 -22 12 -24 26c-3 26 61 198 139 362l-2 2c-19 -25 -48 -60 -83 -60c-32 0 -46 32 -46 60c0 53 34 119 64 161c29 42 90 114 145 114
c35 0 50 -19 50 -54zM163 181c-1 3 -2 7 -2 10c0 14 9 22 18 31c40 40 47 99 20 99c-25 0 -75 -64 -88 -82c-18 -25 -55 -92 -55 -124c0 -12 7 -23 20 -23c32 0 72 62 87 89z" />
    <glyph glyph-name="r" unicode="r" horiz-adv-x="323" 
d="M294 220c-25 -19 -58 -37 -90 -37c-24 0 -44 8 -44 35c0 11 5 19 11 27l-2 2c-61 -50 -112 -117 -148 -188c-7 -15 -17 -42 -37 -42c-12 0 -21 6 -21 19c0 27 52 145 65 172c13 29 70 135 107 135c9 0 20 -6 20 -16c0 -24 -58 -68 -70 -114l2 -2c18 27 153 147 180 147
c8 0 19 -15 19 -24c0 -17 -72 -58 -72 -86c0 -8 6 -13 14 -13c30 0 78 43 90 43c8 0 14 -8 14 -14c0 -16 -28 -36 -38 -44z" />
    <glyph glyph-name="s" unicode="s" horiz-adv-x="268" 
d="M234 382c32 0 65 -9 64 -45c-2 -86 -106 -110 -127 -111c-12 0 -21 6 -21 18c0 19 16 22 30 25c23 5 66 17 66 47c0 15 -12 22 -25 22c-36 1 -107 -36 -107 -89c0 -26 14 -48 29 -69c14 -22 28 -43 28 -71c0 -53 -46 -88 -96 -88c-54 0 -93 38 -93 93c0 25 14 87 47 87
c6 0 14 -3 14 -10c0 -5 -16 -34 -16 -64c0 -31 24 -58 55 -58c24 0 40 18 40 41c0 24 -15 43 -29 64c-15 21 -30 45 -30 76c0 81 101 132 171 132z" />
    <glyph glyph-name="t" unicode="t" horiz-adv-x="258" 
d="M101 396l53 12c16 25 86 142 112 142c10 0 20 -12 20 -22c0 -21 -46 -71 -57 -94c25 7 56 16 81 16c16 0 29 -6 29 -24c0 -21 -21 -21 -37 -23c-38 -4 -77 -21 -115 -31c-36 -57 -103 -187 -103 -252c0 -14 5 -28 22 -28c38 0 84 76 103 108c5 8 11 17 21 17
c8 0 16 -6 16 -14c0 -15 -33 -63 -42 -75c-26 -36 -68 -89 -117 -89c-25 0 -59 21 -55 69c0 56 15 115 85 244c-7 -2 -14 -4 -21 -4c-12 0 -31 8 -31 23c0 19 21 23 36 25z" />
    <glyph glyph-name="u" unicode="u" horiz-adv-x="274" 
d="M141 119c-23 -30 -56 -83 -97 -83c-36 0 -50 32 -50 63c-1 81 99 231 140 229c10 0 20 -8 20 -18c0 -18 -44 -51 -83 -123c-9 -17 -27 -60 -27 -80c0 -7 5 -15 14 -15c36 0 97 114 108 146c8 22 29 79 59 79c11 0 20 -12 20 -22c0 -42 -59 -99 -59 -159
c0 -29 9 -54 35 -68c11 -6 21 -12 21 -27c0 -16 -15 -23 -29 -23c-24 0 -49 19 -59 40c-10 18 -11 40 -13 61z" />
    <glyph glyph-name="v" unicode="v" horiz-adv-x="292" 
d="M174 181l-3 -5c-25 -42 -89 -141 -142 -141c-30 0 -44 33 -44 59c0 43 15 84 90 216c6 11 13 33 28 33c10 0 17 -9 17 -19c0 -24 -21 -65 -32 -86c-14 -27 -51 -95 -51 -123c0 -9 2 -17 14 -17c32 0 87 94 99 123v18c0 24 3 47 14 68c9 18 28 37 50 37c12 0 18 -9 18 -21
c0 -30 -21 -75 -36 -102c6 -1 11 -2 17 -2c30 0 56 39 72 39c8 0 17 -11 17 -18c0 -22 -41 -68 -94 -68c-13 0 -23 4 -34 9z" />
    <glyph glyph-name="w" unicode="w" horiz-adv-x="399" 
d="M157 87c0 34 13 67 28 95l-2 2c-28 -45 -57 -79 -84 -104c-26 -25 -46 -37 -65 -38c-24 0 -36 27 -36 48c0 49 37 110 63 150c14 21 64 95 93 95c11 0 21 -10 21 -21c0 -25 -25 -24 -86 -113c-8 -13 -35 -58 -35 -73c0 -7 5 -11 11 -11c30 0 115 112 132 135
c15 18 41 62 68 62c10 0 22 -6 22 -18c0 -8 -11 -25 -15 -32c-45 -79 -66 -127 -66 -152c0 -7 4 -13 12 -13c25 0 67 67 78 86c28 49 39 76 49 129c5 21 15 50 40 50c15 0 19 -7 19 -20c0 -50 -40 -126 -65 -168c-24 -40 -88 -140 -140 -140c-32 0 -42 23 -42 51z" />
    <glyph glyph-name="x" unicode="x" horiz-adv-x="264" 
d="M68 191l2 106c0 18 0 57 28 57c15 0 23 -12 23 -27c0 -26 -3 -32 -3 -75c77 86 98 105 111 105c10 0 15 -9 15 -18c0 -12 -7 -19 -16 -26c-40 -36 -94 -94 -111 -123v-32c0 -14 -4 -54 19 -54c24 0 73 76 84 96c6 9 13 22 26 22c8 0 12 -5 12 -13c0 -22 -38 -74 -50 -91
c-20 -27 -59 -79 -95 -79c-46 0 -41 64 -45 96c-78 -95 -90 -112 -106 -112c-12 0 -16 15 -16 25c0 19 15 29 28 41z" />
    <glyph glyph-name="y" unicode="y" horiz-adv-x="356" 
d="M223 262l26 36c10 14 33 50 53 50c12 0 22 -11 22 -23c0 -17 -12 -36 -20 -50c-35 -59 -71 -118 -95 -183c35 18 99 83 116 116c4 8 9 21 20 21c8 0 15 -7 15 -15c0 -23 -37 -70 -51 -86c-37 -42 -84 -78 -133 -105c-39 -88 -117 -299 -232 -299c-38 0 -64 33 -64 70
c0 72 56 146 252 251c19 48 44 93 65 137l-2 2c-34 -41 -104 -131 -162 -131c-21 0 -35 17 -35 37c0 47 40 113 66 149c15 20 68 94 96 94c11 0 22 -9 22 -21c0 -17 -16 -32 -27 -43c-23 -24 -96 -105 -96 -138c0 -8 5 -12 12 -12c33 0 132 116 152 143zM89 -48l14 30
c-57 -27 -170 -111 -170 -178c0 -15 11 -26 26 -26c45 0 89 84 104 119z" />
    <glyph glyph-name="z" unicode="z" horiz-adv-x="231" 
d="M174 306l-74 -7c-19 0 -51 3 -51 28c0 14 8 23 22 23c6 0 32 -6 49 -6c31 0 57 3 87 10c9 2 18 4 27 4c13 0 29 -10 29 -25c0 -19 -15 -28 -31 -40c-119 -92 -152 -129 -191 -193c26 9 52 16 81 16c21 0 60 -2 60 -31c0 -12 -11 -25 -23 -25c-13 0 -28 8 -46 8
c-58 0 -99 -32 -118 -32c-13 0 -30 8 -30 23c0 45 160 214 211 245z" />
    <glyph glyph-name="braceleft" unicode="{" horiz-adv-x="441" 
d="M251 90l-25 -49c-35 -68 -18 -135 60 -135c19 0 30 2 37 4c8 -2 13 -10 10 -15c-11 -26 -35 -28 -52 -28c-52 0 -78 10 -106 34c-16 12 -26 35 -25 60c0 24 8 50 17 68c11 24 21 50 41 84c8 14 14 29 18 45c2 16 1 32 -4 50c-18 35 -55 51 -84 71c-8 7 -20 15 -17 30
c12 16 34 25 51 32c39 19 89 36 142 72c49 34 77 65 89 94c19 33 34 60 47 84c18 34 77 104 131 128s91 34 143 34c21 0 42 -3 32 -28c-5 -7 -15 -16 -24 -16c-7 0 -15 3 -35 3c-78 0 -164 -70 -199 -133l-23 -46c-25 -62 -49 -137 -250 -224c98 -100 62 -160 26 -219z" />
    <glyph glyph-name="braceright" unicode="}" horiz-adv-x="441" 
d="M312 533l25 49c35 68 18 135 -60 135c-19 0 -30 -2 -37 -4c-8 2 -13 10 -10 15c11 26 35 28 52 28c52 0 78 -10 106 -34c16 -12 26 -35 25 -60c0 -24 -8 -50 -17 -68c-11 -24 -21 -50 -41 -84c-8 -14 -14 -29 -18 -45c-2 -16 -1 -32 4 -50c18 -35 55 -51 84 -71
c8 -7 20 -15 17 -30c-12 -16 -34 -25 -51 -32c-39 -19 -89 -36 -142 -72c-49 -34 -77 -65 -89 -94c-19 -33 -34 -60 -47 -84c-18 -34 -77 -104 -131 -128s-91 -34 -143 -34c-21 0 -42 3 -32 28c5 7 15 16 24 16c7 0 15 -3 35 -3c78 0 164 70 199 133l23 46
c25 62 49 137 250 224c-98 100 -62 160 -26 219z" />
    <glyph glyph-name="exclamdown" unicode="&#xa1;" horiz-adv-x="276" 
d="M132 168l-218 -387c-7 -15 -15 -37 -35 -37c-15 0 -23 14 -23 27c0 30 44 102 58 129l223 382c5 11 13 25 27 25c15 0 25 -19 25 -32c0 -28 -42 -82 -57 -107zM214 357c-15 0 -25 13 -25 27c0 27 17 79 50 79c15 0 23 -13 23 -27c0 -23 -19 -79 -48 -79z" />
    <glyph glyph-name="cent" unicode="&#xa2;" horiz-adv-x="319" 
d="M100 119l-29 -58c-5 -11 -19 -47 -36 -47c-8 0 -13 9 -13 16c0 11 12 32 43 95c-33 10 -47 37 -47 71c0 99 123 239 225 247c32 56 34 62 49 62c8 0 15 -4 15 -13c0 -13 -10 -22 -29 -54c23 -9 36 -31 36 -55c0 -53 -40 -93 -70 -98c-9 -1 -15 6 -15 15c0 21 41 26 41 74
c0 12 -6 19 -16 21c-48 -71 -90 -151 -132 -230c54 3 110 41 145 75c8 7 17 19 28 19c9 0 15 -5 15 -13c0 -19 -42 -55 -54 -65c-44 -35 -97 -66 -156 -62zM89 173l124 221c-62 -26 -141 -116 -141 -186c0 -16 4 -27 17 -35z" />
    <glyph glyph-name="sterling" unicode="&#xa3;" horiz-adv-x="480" 
d="M325 539c38 37 76 49 125 50c20 0 48 -4 48 -30c0 -10 -10 -21 -21 -21c-9 0 -19 3 -28 3c-97 0 -152 -116 -184 -192c22 6 77 19 99 19c20 0 50 -7 50 -33c0 -11 -8 -24 -20 -24s-25 5 -41 5c-39 0 -75 -14 -112 -22c-32 -77 -67 -156 -121 -221c53 18 122 36 178 36
c16 0 47 -7 47 -28c0 -30 -25 -28 -63 -28c-71 0 -171 -32 -238 -58c-15 -5 -30 -13 -46 -13c-15 0 -27 10 -27 25c0 19 19 31 34 40c45 26 72 48 101 94c28 45 50 95 71 140c-79 -13 -105 -13 -105 18c0 14 13 29 27 29c13 0 25 -3 38 -3c21 0 43 3 65 8
c47 106 85 169 123 206z" />
    <glyph glyph-name="yen" unicode="&#xa5;" horiz-adv-x="435" 
d="M211 252l13 30c-2 186 -30 252 -38 264c-10 14 15 21 25 22c15 0 21 -4 26 -15c18 -39 33 -136 40 -214c105 136 203 236 223 247c19 12 29 14 38 8s13 -16 13 -22c0 -23 -30 -38 -55 -62c-108 -103 -192 -224 -208 -243c20 4 41 7 52 7c20 0 50 -6 50 -28
c0 -9 -8 -20 -20 -20s-25 4 -41 4c-27 0 -53 -6 -78 -11l-23 -30c21 4 42 7 54 7c20 0 50 -6 50 -28c0 -9 -8 -20 -20 -20s-25 4 -41 4c-28 0 -54 -6 -80 -12c-125 -176 -100 -184 -132 -188c-14 -2 -26 9 -28 19c-4 18 50 98 92 156c-76 -13 -101 -12 -110 -11
c-16 2 -23 9 -23 22c0 11 13 24 27 24c13 0 25 -2 38 -2c21 0 43 2 65 6l36 8l22 30l-25 -4c-39 -5 -66 -8 -82 -6s-23 8 -23 21c0 12 13 25 27 25c13 0 25 -3 38 -3c28 0 42 2 98 15z" />
    <glyph glyph-name="florin" unicode="&#x192;" horiz-adv-x="350" 
d="M183 231l-95 -176l-33 -62c-45 -82 -102 -172 -219 -172c-20 0 -52 3 -52 30c0 35 51 24 53 24c97 0 144 83 184 161l149 275c-11 -3 -28 -7 -35 -7c-12 0 -31 7 -31 21c0 17 21 21 36 22l56 12l60 111c44 82 89 168 218 168c20 0 48 -4 48 -27c0 -34 -47 -20 -49 -20
c-93 7 -147 -84 -185 -164l-21 -44c45 9 72 14 91 12s24 -10 24 -21c0 -22 -21 -22 -37 -24c-38 -4 -77 -19 -113 -28c-2 -5 -34 -59 -49 -91z" />
    <glyph glyph-name="quotesingle" unicode="'" horiz-adv-x="222" 
d="M191 721c24 0 35 -24 35 -51c0 -26 -13 -158 -19 -234c-2 -25 -7 -31 -16 -31s-14 6 -16 31c-6 76 -19 208 -19 234c0 27 11 51 35 51z" />
    <glyph glyph-name="quotedblleft" unicode="&#x201c;" horiz-adv-x="225" 
d="M158 537c-4 -21 -10 -43 -37 -43c-18 0 -24 15 -24 30c0 75 101 197 133 197c12 0 22 -12 22 -24c0 -13 -14 -24 -23 -32c-35 -31 -63 -81 -71 -128zM278 537c-4 -21 -10 -43 -37 -43c-18 0 -24 15 -24 30c0 75 101 197 133 197c12 0 22 -12 22 -24
c0 -13 -14 -24 -23 -32c-35 -31 -63 -81 -71 -128z" />
    <glyph glyph-name="guillemotleft" unicode="&#xab;" horiz-adv-x="291" 
d="M130 316c10 -3 26 -12 26 -24c0 -24 -54 -40 -54 -70c0 -23 25 -49 25 -64c0 -16 -16 -30 -31 -30c-28 0 -54 68 -54 91c0 36 66 104 88 97zM244 316c10 -3 26 -12 26 -24c0 -24 -54 -40 -54 -70c0 -23 25 -49 25 -64c0 -16 -16 -30 -31 -30c-28 0 -54 68 -54 91
c0 36 66 104 88 97z" />
    <glyph glyph-name="guilsinglleft" unicode="&#x2039;" horiz-adv-x="177" 
d="M130 316c10 -3 26 -12 26 -24c0 -24 -54 -40 -54 -70c0 -23 25 -49 25 -64c0 -16 -16 -30 -31 -30c-28 0 -54 68 -54 91c0 36 66 104 88 97z" />
    <glyph glyph-name="guilsinglright" unicode="&#x203a;" horiz-adv-x="177" 
d="M62 128c-10 3 -26 12 -26 24c0 24 54 40 54 70c0 23 -25 49 -25 64c0 16 16 30 31 30c28 0 54 -68 54 -91c0 -36 -66 -104 -88 -97z" />
    <glyph glyph-name="fi" unicode="&#xfb01;" horiz-adv-x="407" 
d="M107 216l-7 -13l-77 -187c-39 -94 -61 -203 -16 -203c31 0 81 102 88 117c95 208 43 286 12 286zM8 108l39 91c-27 -6 -42 33 42 84c124 247 231 406 277 406c11 0 20 -7 20 -18c0 -12 -11 -24 -18 -33c-82 -94 -151 -199 -207 -311c66 29 178 31 203 30
c41 -2 47 -17 47 -27c0 -22 -81 -102 -129 -264c-5 -17 -9 -42 -31 -42c-13 0 -22 12 -22 24c0 44 68 183 117 255c-13 5 -62 8 -93 8c-38 0 -92 -24 -124 -47c47 -12 108 -115 9 -340c-25 -57 -83 -171 -150 -171c-43 0 -57 44 -57 80c0 80 44 201 77 275zM489 540
c15 0 24 -10 24 -24c0 -26 -36 -73 -63 -73c-14 0 -23 10 -23 24c0 25 36 73 62 73z" />
    <glyph glyph-name="fl" unicode="&#xfb02;" horiz-adv-x="419" 
d="M95 -70c83 192 31 270 3 264l-75 -178c-39 -94 -61 -203 -16 -203c31 0 81 102 88 117zM8 108l39 91c-29 13 -45 75 45 93c121 238 228 397 274 397c11 0 20 -7 20 -18c0 -12 -11 -24 -18 -33c-82 -94 -151 -199 -214 -338c44 6 100 24 140 50c98 171 215 343 282 343
c22 0 38 -17 38 -40c0 -65 -83 -179 -123 -231c-55 -66 -105 -94 -163 -123l-19 -38l-22 -54c-8 -20 -29 -74 -29 -94c0 -8 4 -14 12 -14c29 0 66 58 80 81c7 11 17 33 33 33c8 0 13 -7 13 -15c0 -21 -85 -158 -148 -158c-27 0 -43 21 -43 46c0 38 32 125 64 204
c-47 -20 -103 -32 -151 -44v-2c47 -11 108 -114 20 -320c-25 -57 -83 -171 -150 -171c-43 0 -57 44 -57 80c0 80 44 201 77 275zM482 478c24 32 76 124 79 144c0 7 -4 11 -11 11c-28 -7 -77 -71 -125 -148c-43 -69 -65 -101 -67 -110l3 -1c15 -1 85 57 121 104z" />
    <glyph glyph-name="endash" unicode="&#x2013;" horiz-adv-x="500" 
d="M500 193h-500v57h500v-57z" />
    <glyph glyph-name="periodcentered" unicode="&#xb7;" horiz-adv-x="218" 
d="M130 294c15 0 25 -13 25 -27c0 -27 -17 -79 -50 -79c-15 0 -23 13 -23 27c0 23 19 79 48 79z" />
    <glyph glyph-name="periodcentered" unicode="&#x2219;" horiz-adv-x="218" 
d="M130 294c15 0 25 -13 25 -27c0 -27 -17 -79 -50 -79c-15 0 -23 13 -23 27c0 23 19 79 48 79z" />
    <glyph glyph-name="bullet" unicode="&#x2022;" horiz-adv-x="301" 
d="M224 567c51 0 87 -46 87 -95c0 -98 -60 -283 -177 -283c-57 0 -84 46 -84 95c0 84 70 283 174 283z" />
    <glyph glyph-name="quotesinglbase" unicode="&#x201a;" horiz-adv-x="118" 
d="M-11 76c3 22 9 44 37 44c18 0 24 -15 24 -31c0 -38 -31 -90 -52 -121c-12 -19 -57 -75 -81 -75c-12 0 -22 12 -22 23c0 14 13 25 23 33c35 30 63 81 71 127z" />
    <glyph glyph-name="quotedblbase" unicode="&#x201e;" horiz-adv-x="238" 
d="M-48 76c3 22 9 44 37 44c18 0 24 -15 24 -31c0 -38 -31 -90 -52 -121c-12 -19 -57 -75 -81 -75c-12 0 -22 12 -22 23c0 14 13 25 23 33c35 30 63 81 71 127zM71 76c4 22 10 44 37 44c19 0 24 -15 24 -31c0 -38 -30 -90 -51 -121c-13 -19 -58 -75 -81 -75
c-13 0 -22 12 -22 23c0 14 13 25 22 33c36 30 64 81 71 127z" />
    <glyph glyph-name="quotedblright" unicode="&#x201d;" horiz-adv-x="238" 
d="M232 678c4 21 10 43 37 43c18 0 24 -15 24 -30c0 -75 -101 -197 -133 -197c-12 0 -22 12 -22 24c0 13 14 24 23 32c35 31 63 81 71 128zM352 678c4 21 10 43 37 43c18 0 24 -15 24 -30c0 -75 -101 -197 -133 -197c-12 0 -22 12 -22 24c0 13 14 24 23 32
c35 31 63 81 71 128z" />
    <glyph glyph-name="guillemotright" unicode="&#xbb;" horiz-adv-x="291" 
d="M176 128c-10 3 -26 12 -26 24c0 24 54 40 54 70c0 23 -25 49 -25 64c0 16 16 30 31 30c28 0 54 -68 54 -91c0 -36 -66 -104 -88 -97zM62 128c-10 3 -26 12 -26 24c0 24 54 40 54 70c0 23 -25 49 -25 64c0 16 16 30 31 30c28 0 54 -68 54 -91c0 -36 -66 -104 -88 -97z" />
    <glyph glyph-name="ellipsis" unicode="&#x2026;" horiz-adv-x="1000" 
d="M511 106c15 0 25 -13 25 -27c0 -27 -17 -79 -50 -79c-15 0 -23 13 -23 27c0 23 19 79 48 79zM844 106c15 0 25 -13 25 -27c0 -27 -17 -79 -50 -79c-15 0 -23 13 -23 27c0 23 19 79 48 79zM178 106c15 0 25 -13 25 -27c0 -27 -17 -79 -50 -79c-15 0 -23 13 -23 27
c0 23 19 79 48 79z" />
    <glyph glyph-name="questiondown" unicode="&#xbf;" horiz-adv-x="387" 
d="M166 206c9 18 18 42 42 42c12 0 23 -6 23 -18c0 -23 -24 -70 -37 -89c-44 -65 -115 -116 -178 -161c-48 -33 -124 -79 -124 -144c0 -30 25 -47 53 -47c110 0 182 126 215 126c11 0 20 -9 20 -19c-1 -45 -115 -149 -226 -150c-55 0 -107 36 -107 95c0 80 107 157 165 199
c74 54 113 82 154 166zM234 357c-15 0 -25 13 -25 27c0 27 17 79 50 79c15 0 23 -13 23 -27c0 -23 -19 -79 -48 -79z" />
    <glyph glyph-name="grave" unicode="`" horiz-adv-x="257" 
d="M180 517l48 -61c7 -9 19 -22 19 -35c0 -9 -5 -19 -16 -19c-18 0 -42 33 -52 45c-10 13 -49 58 -49 74c0 9 10 18 20 18c15 0 23 -10 30 -22z" />
    <glyph glyph-name="acute" unicode="&#xb4;" horiz-adv-x="257" 
d="M150 456l48 61c7 12 15 22 30 22c10 0 20 -9 20 -18c0 -16 -39 -61 -49 -74c-10 -12 -34 -45 -52 -45c-11 0 -16 10 -16 19c0 13 12 26 19 35z" />
    <glyph glyph-name="circumflex" unicode="&#x2c6;" horiz-adv-x="311" 
d="M111 450c7 21 70 56 92 55c19 -1 68 -61 68 -83c0 -9 -11 -20 -21 -20c-26 0 -42 49 -51 47c-19 7 -51 -34 -75 -25c-10 4 -16 18 -13 26z" />
    <glyph glyph-name="tilde" unicode="&#x2dc;" horiz-adv-x="400" 
d="M140 514c26 4 47 -7 74 -22c9 -5 24 -22 50 -26c28 -8 45 34 58 34c8 0 13 -10 13 -20c0 -42 -51 -68 -75 -58s-46 18 -64 34c-11 10 -50 38 -64 8c-12 -26 -32 -20 -32 6c0 28 25 42 40 44z" />
    <glyph glyph-name="macron" unicode="&#xaf;" horiz-adv-x="319" 
d="M347 443h-256v57h256v-57z" />
    <glyph glyph-name="macron" unicode="&#x2c9;" horiz-adv-x="319" 
d="M347 443h-256v57h256v-57z" />
    <glyph glyph-name="breve" unicode="&#x2d8;" horiz-adv-x="240" 
d="M207 477h6c47 0 67 32 76 32c4 0 7 -5 7 -10c2 -21 -34 -58 -86 -58s-88 37 -86 58c0 5 3 10 7 10c9 0 29 -32 76 -32z" />
    <glyph glyph-name="dotaccent" unicode="&#x2d9;" horiz-adv-x="219" 
d="M169 584c15 0 25 -13 25 -27c0 -27 -17 -79 -50 -79c-15 0 -23 13 -23 27c0 23 19 79 48 79z" />
    <glyph glyph-name="dieresis" unicode="&#xa8;" horiz-adv-x="335" 
d="M133 550c15 0 24 -10 24 -24c0 -26 -35 -73 -63 -73c-14 0 -23 10 -23 24c0 25 36 73 62 73zM240 550c15 0 24 -10 24 -24c0 -26 -35 -73 -63 -73c-14 0 -23 10 -23 24c0 25 36 73 62 73z" />
    <glyph glyph-name="ring" unicode="&#x2da;" horiz-adv-x="279" 
d="M242 546c20 0 37 -16 37 -37c0 -41 -59 -112 -102 -112c-20 0 -36 17 -36 37c0 43 55 112 101 112zM229 510c-22 0 -55 -44 -55 -65c0 -7 4 -14 11 -14c24 0 59 42 59 64c0 9 -6 15 -15 15z" />
    <glyph glyph-name="cedilla" unicode="&#xb8;" horiz-adv-x="160" 
d="M40 0h26c-17 -14 -44 -48 -32 -55s23 -19 23 -39c0 -42 -49 -84 -75 -103c-5 -5 -10 -6 -13 -4s-5 7 -1 12c10 7 46 38 46 63c0 19 -16 28 -33 34c-6 2 -7 14 -2 20c8 9 24 27 61 72z" />
    <glyph glyph-name="hungarumlaut" unicode="&#x2dd;" horiz-adv-x="400" 
d="M317 455l48 61c7 12 15 22 30 22c10 0 20 -9 20 -18c0 -16 -39 -61 -49 -74c-10 -12 -34 -45 -52 -45c-11 0 -16 10 -16 19c0 13 12 26 19 35zM227 456l48 61c7 12 15 22 30 22c10 0 20 -9 20 -18c0 -16 -39 -61 -49 -74c-10 -12 -34 -45 -52 -45c-11 0 -16 10 -16 19
c0 13 12 26 19 35z" />
    <glyph glyph-name="ogonek" unicode="&#x2db;" horiz-adv-x="180" 
d="M129 -41h34c-17 -17 -49 -41 -49 -69c0 -22 15 -38 38 -38c21 0 43 10 50 27c3 8 9 11 13 10c3 -2 5 -6 1 -13c-23 -37 -59 -69 -105 -69c-33 0 -53 21 -53 54c0 42 43 73 71 98z" />
    <glyph glyph-name="caron" unicode="&#x2c7;" horiz-adv-x="251" 
d="M245 472c-7 -21 -70 -56 -92 -55c-19 1 -68 61 -68 83c0 9 11 20 21 20c26 0 42 -49 51 -47c19 -7 51 34 75 25c10 -4 16 -18 13 -26z" />
    <glyph glyph-name="emdash" unicode="&#x2014;" horiz-adv-x="1000" 
d="M1000 194h-1000v57h1000v-57z" />
    <glyph glyph-name="AE" unicode="&#xc6;" horiz-adv-x="671" 
d="M539 612l-148 -112c-44 -39 -90 -76 -128 -122l151 33c35 71 86 133 127 199zM176 366l260 236c-11 5 -22 17 -22 30c0 24 37 30 55 34l185 31l103 12l83 6c16 0 35 -3 35 -23c0 -15 -12 -32 -28 -32l-57 -1c-66 -4 -132 -12 -196 -26c7 -9 10 -13 7 -23
c-4 -9 -13 -24 -32 -52c-42 -67 -61 -93 -77 -133l151 19c14 0 53 7 53 -17c0 -33 -43 -34 -66 -36l-177 -25c-48 -91 -97 -182 -128 -280c111 36 185 59 245 59c19 0 34 -4 34 -27c0 -26 -32 -27 -51 -29c-78 -7 -160 -29 -230 -65c-8 -4 -21 -10 -31 -10
c-21 0 -37 19 -37 39c-9 15 69 195 129 300l-179 -33c-75 -91 -161 -182 -226 -273c-9 -13 -21 -31 -39 -31c-13 0 -23 10 -23 23c0 25 25 50 61 97l144 174l-57 -2c-13 0 -32 2 -32 19c0 18 22 30 38 31z" />
    <glyph glyph-name="ordfeminine" unicode="&#xaa;" horiz-adv-x="171" 
d="M236 538l2 16l-2 2v-4c-14 -22 -33 -51 -63 -50c-24 1 -34 23 -34 42c0 56 66 161 133 161c14 0 32 -9 32 -24c0 -7 -3 -12 -6 -19c3 -4 10 -7 10 -11c0 -8 -6 -15 -10 -21c-11 -18 -29 -61 -29 -82c0 -13 4 -22 16 -28c3 -3 9 -6 9 -15c0 -8 -8 -13 -16 -13
c-11 0 -22 5 -29 12c-11 10 -13 21 -13 34zM268 652c-4 6 -8 12 -17 12c-36 0 -79 -77 -79 -106c0 -7 3 -15 12 -15c23 0 50 57 59 75c8 11 13 26 25 34z" />
    <glyph glyph-name="Lslash" unicode="&#x141;" horiz-adv-x="326" 
d="M190 479l109 149c12 16 37 55 59 55c12 0 24 -10 24 -23c0 -17 -31 -52 -40 -64l-111 -158c21 6 46 12 67 12c16 0 29 -6 29 -24c0 -21 -21 -21 -37 -23c-33 -4 -68 -17 -102 -27l-58 -83c-40 -66 -79 -135 -101 -210c197 59 230 51 230 14c0 -14 -13 -28 -27 -28
c-10 0 -20 3 -30 3c-42 0 -92 -17 -130 -34c-20 -9 -36 -16 -70 -22c-27 -5 -47 15 -37 59c10 46 72 170 140 277c-7 -2 -14 -4 -21 -4c-12 0 -31 8 -31 23c0 19 21 23 36 25l53 12z" />
    <glyph glyph-name="Oslash" unicode="&#xd8;" 
d="M358 269c66 87 115 191 126 281c2 17 2 30 0 38c-232 -330 -320 -484 -336 -528c40 15 95 56 210 209zM552 685l-14 -18l-17 -24c-3 -11 19 -27 23 -76c9 -114 -93 -268 -162 -357c-59 -78 -174 -209 -275 -221c-13 -15 -20 -57 -44 -57c-10 0 -16 7 -16 17
c0 17 12 34 18 50c-39 19 -51 60 -52 100c0 182 190 429 328 540c-33 -4 -62 -20 -90 -33c-7 -3 -10 -6 -19 -7c-3 -1 -55 26 21 63c49 23 103 39 151 39c34 0 61 -9 89 -27c12 14 34 53 54 53c9 0 17 -10 17 -18c0 -9 -6 -17 -12 -24zM399 647l-31 -3
c16 -16 10 -25 -12 -47l-26 -27c-218 -228 -257 -384 -257 -458c1 -24 6 -41 26 -53l6 10l353 560c-16 13 -38 18 -59 18z" />
    <glyph glyph-name="OE" unicode="&#x152;" horiz-adv-x="693" 
d="M399 359c28 51 65 144 65 203c0 64 -46 94 -116 88c4 -6 8 -11 8 -18c0 -12 -15 -25 -22 -33c-111 -118 -280 -312 -280 -482c0 -30 13 -61 47 -61c83 0 258 231 298 303zM519 555l41 66c-14 0 -22 18 -22 30c0 27 44 31 63 35c87 18 165 26 251 31c21 1 44 -2 44 -29
s-30 -28 -50 -29c-79 -2 -151 -9 -231 -28c3 -4 6 -7 6 -12c0 -14 -16 -32 -24 -42c-46 -70 -26 -35 -97 -155c54 12 150 29 176 27c19 -2 36 -5 36 -27c0 -25 -25 -27 -44 -28c-68 -5 -129 -14 -202 -31c-51 -86 -97 -177 -125 -274c65 29 154 54 225 54c22 0 52 0 52 -29
c0 -24 -23 -25 -41 -25c-79 0 -163 -21 -232 -59c-10 -6 -26 -16 -38 -16c-21 0 -37 19 -37 38c0 25 20 66 28 88l-2 2c-130 -152 -188 -149 -210 -149c-61 0 -93 51 -93 108c0 101 62 227 119 310c42 61 114 149 208 231l-2 2c-70 -17 -83 -42 -108 -42
c-13 0 -20 12 -20 24c0 19 27 30 41 38c47 24 101 41 154 41c34 0 67 -10 93 -33c31 -27 52 -69 39 -115z" />
    <glyph glyph-name="ordmasculine" unicode="&#xba;" horiz-adv-x="169" 
d="M252 705c20 0 28 -13 28 -31c0 -33 -20 -71 -38 -100c-18 -28 -50 -72 -90 -72c-22 0 -33 18 -33 37c0 35 22 78 44 105c18 23 56 61 89 61zM184 622c-12 -16 -28 -45 -28 -64c0 -7 3 -15 12 -15c20 0 41 30 50 45c7 13 23 44 25 67c2 5 -2 9 -7 9c-15 0 -44 -32 -52 -42
z" />
    <glyph glyph-name="ae" unicode="&#xe6;" horiz-adv-x="400" 
d="M153 196c-12 8 -23 13 -38 13c-46 0 -89 -54 -89 -99c0 -14 9 -27 24 -27c43 0 93 76 103 113zM242 327c22 20 48 44 79 44c28 0 48 -19 48 -47c0 -34 -18 -75 -38 -101c-22 -27 -65 -56 -102 -56c-10 0 -19 3 -28 6c-5 -14 -8 -28 -8 -43c0 -25 9 -45 37 -45
c50 0 103 74 130 111c6 8 15 21 25 21c8 0 14 -8 14 -15c0 -17 -40 -69 -49 -81c-34 -42 -82 -92 -140 -92c-47 0 -61 39 -66 78c-22 -35 -62 -79 -107 -79c-38 0 -60 37 -60 71c0 75 74 153 149 153c18 0 34 -5 50 -12c6 15 15 39 15 56c0 16 -10 29 -27 29
c-15 0 -31 -7 -44 -13c-9 -5 -27 -14 -38 -14c-12 0 -17 10 -17 20c0 16 17 23 29 30c28 15 59 31 91 31c35 0 52 -19 57 -52zM219 216l21 -2c37 0 85 51 85 89c0 10 -4 17 -15 17c-34 0 -78 -77 -91 -104z" />
    <glyph glyph-name="dotlessi" unicode="&#x131;" horiz-adv-x="139" 
d="M-15 48c0 61 128 301 163 301c10 0 19 -8 19 -19c0 -22 -81 -102 -129 -264c-5 -17 -9 -42 -31 -42c-13 0 -22 12 -22 24z" />
    <glyph glyph-name="lslash" unicode="&#x142;" horiz-adv-x="227" 
d="M106 220l-11 -13c-8 -20 -29 -74 -29 -94c0 -8 4 -14 12 -14c29 0 66 58 80 81c7 11 17 33 33 33c8 0 13 -7 13 -15c0 -15 -35 -65 -44 -77c-22 -31 -63 -81 -104 -81c-27 0 -43 21 -43 46c0 43 40 147 97 258c-3 -1 -7 -2 -19 -6c-12 0 -31 8 -31 23c0 19 21 23 44 29
l34 8c81 150 184 295 246 295c22 0 38 -17 38 -40c0 -58 -65 -154 -107 -209c23 3 35 -3 35 -20c0 -21 -21 -21 -37 -23c-14 -3 -24 -5 -39 -9c-52 -66 -104 -114 -168 -172zM133 294c60 49 110 110 154 173c19 27 82 122 82 155c0 7 -4 11 -11 11c-25 0 -77 -71 -124 -149
s-91 -162 -101 -190z" />
    <glyph glyph-name="oslash" unicode="&#xf8;" horiz-adv-x="245" 
d="M-13 131l23 16c14 75 118 226 199 226c20 0 33 -13 39 -31c9 6 21 20 32 20c8 0 14 -9 14 -17c0 -16 -35 -44 -47 -55c-17 -80 -101 -256 -194 -256c-34 0 -48 33 -50 62c-9 -3 -22 -12 -30 -12c-7 0 -16 7 -16 14c0 16 19 26 30 33zM202 299c1 2 1 5 1 8c0 6 -7 9 -14 9
c-33 1 -98 -89 -111 -118c44 29 85 65 124 101zM53 131v-14c0 -13 6 -26 22 -26c45 0 96 103 108 142z" />
    <glyph glyph-name="oe" unicode="&#x153;" horiz-adv-x="418" 
d="M234 222c7 -3 11 -6 19 -6c27 0 47 17 63 36c10 12 26 33 26 50c0 9 -3 16 -13 16c-28 0 -80 -74 -95 -96zM44 118c0 -13 9 -28 24 -28c51 0 134 160 134 203c0 11 -5 23 -18 23c-29 0 -73 -55 -88 -77c-21 -29 -52 -84 -52 -121zM244 333l-2 -20c27 24 65 52 103 52
c28 0 43 -23 43 -49c0 -66 -80 -149 -147 -149c-10 0 -22 4 -32 7c-9 -16 -18 -34 -18 -53c0 -24 13 -36 36 -36c52 0 113 60 140 101c6 9 14 24 27 24c8 0 14 -8 14 -16c0 -19 -27 -52 -38 -66c-35 -42 -100 -96 -158 -96c-37 0 -63 20 -74 55c-21 -26 -60 -54 -94 -54
c-36 0 -54 37 -54 68c0 64 40 133 79 181c29 35 85 91 134 91c21 0 41 -18 41 -40z" />
    <glyph glyph-name="germandbls" unicode="&#xdf;" horiz-adv-x="291" 
d="M189 215c-26 -19 -62 -72 -62 -103c0 -14 7 -24 21 -24c35 0 46 64 46 90c0 13 -2 25 -5 37zM230 244c10 -24 16 -49 16 -75c0 -29 -5 -56 -20 -81c-16 -27 -49 -57 -83 -57c-33 0 -60 27 -60 61c0 59 52 128 94 169c-8 26 -25 64 -25 91c0 42 42 79 70 107
c72 73 126 169 124 203c0 8 -5 16 -15 16c-30 0 -84 -92 -97 -118c-76 -156 -140 -314 -195 -476c-5 -16 -12 -49 -34 -49c-14 0 -24 11 -24 24c0 18 20 64 27 83c182 470 176 430 201 476c25 40 80 125 134 125c31 0 56 -26 56 -56c0 -90 -99 -209 -160 -271
c-15 -16 -41 -42 -41 -66c0 -15 9 -45 15 -61c25 11 39 12 46 8c8 -3 9 -11 9 -16c0 -13 -9 -19 -19 -24c-6 -4 -13 -7 -19 -13z" />
    <glyph glyph-name="onesuperior" unicode="&#xb9;" horiz-adv-x="195" 
d="M283 663c-56 -66 -104 -152 -147 -227c-5 -9 -14 -34 -33 -34c-10 0 -17 12 -20 21c-7 20 112 204 138 226h3v2l-4 -1c-6 -6 -69 -38 -88 -38c-10 0 -11 9 -13 16c0 15 8 22 20 26c26 9 51 23 75 35c13 7 47 21 61 21c9 0 24 -13 24 -21c0 -9 -10 -19 -16 -26z" />
    <glyph glyph-name="mu" unicode="&#xb5;" horiz-adv-x="298" 
d="M152 119c-23 -30 -56 -83 -97 -83c-11 0 -19 6 -23 10c-30 -94 -40 -198 -47 -250c-2 -14 -3 -42 -24 -42c-17 0 -22 13 -21 28c11 118 20 192 53 318c12 45 41 107 65 145c13 20 59 83 87 83c10 0 20 -8 20 -18c0 -18 -44 -51 -83 -123c-9 -17 -27 -60 -27 -80
c0 -7 5 -15 14 -15c36 0 97 114 108 146c8 22 29 79 59 79c11 0 20 -12 20 -22c0 -42 -59 -99 -59 -159c0 -29 9 -54 35 -68c11 -6 21 -12 21 -27c0 -16 -15 -23 -29 -23c-24 0 -49 19 -59 40c-10 18 -11 40 -13 61z" />
    <glyph glyph-name="mu" unicode="&#x3bc;" horiz-adv-x="298" 
d="M152 119c-23 -30 -56 -83 -97 -83c-11 0 -19 6 -23 10c-30 -94 -40 -198 -47 -250c-2 -14 -3 -42 -24 -42c-17 0 -22 13 -21 28c11 118 20 192 53 318c12 45 41 107 65 145c13 20 59 83 87 83c10 0 20 -8 20 -18c0 -18 -44 -51 -83 -123c-9 -17 -27 -60 -27 -80
c0 -7 5 -15 14 -15c36 0 97 114 108 146c8 22 29 79 59 79c11 0 20 -12 20 -22c0 -42 -59 -99 -59 -159c0 -29 9 -54 35 -68c11 -6 21 -12 21 -27c0 -16 -15 -23 -29 -23c-24 0 -49 19 -59 40c-10 18 -11 40 -13 61z" />
    <glyph glyph-name="trademark" unicode="&#x2122;" horiz-adv-x="1000" 
d="M333 269h-171v27c19 0 36 0 46 6c11 6 9 26 9 37v304h-28c-51 0 -75 -6 -75 -63h-29v93h325v-93h-29c0 57 -24 63 -75 63h-28v-304c0 -11 -2 -31 9 -37c10 -6 27 -6 46 -6v-27zM559 639v-309c1 -15 -1 -20 14 -29c9 -6 23 -4 35 -5v-27h-120v27h4c22 1 33 3 33 33v282
c0 32 3 36 -25 37h-3v25h117l114 -295l126 295h116v-25h-8c-15 0 -30 -1 -28 -20v-286c0 -36 3 -42 29 -46h7v-27h-146v27c22 0 47 0 49 29v314h-2l-156 -370l-154 370h-2z" />
    <glyph glyph-name="Eth" unicode="&#xd0;" horiz-adv-x="487" 
d="M75 360l53 12c1 1 20 42 48 95l65 120c-18 -7 -41 -36 -59 -36c-10 0 -22 11 -22 22c0 20 83 115 220 115c85 0 151 -61 151 -147c0 -252 -300 -567 -476 -569c-31 0 -60 18 -60 52c0 45 58 185 110 296c-13 -3 -23 -8 -35 -8s-31 8 -31 23c0 19 21 23 36 25zM210 400
c24 7 51 14 74 14c16 0 29 -6 29 -24c0 -21 -21 -21 -37 -23c-31 -3 -64 -16 -95 -25c-111 -226 -113 -258 -118 -296c-2 -13 6 -20 20 -20c42 0 109 47 139 74c117 105 256 297 256 450c0 79 -75 118 -188 61c19 -11 19 -14 1 -49c-33 -64 -61 -120 -81 -162z" />
    <glyph glyph-name="Thorn" unicode="&#xde;" horiz-adv-x="464" 
d="M114 154l-30 -70l-21 -58c-4 -13 -11 -35 -28 -35s-29 17 -29 33c0 40 24 82 52 146c-38 31 -21 66 26 58c71 145 96 186 102 210c-12 -7 -26 -19 -46 -23c0 9 -94 18 82 99c64 152 62 183 89 183c15 0 59 -5 -19 -165c132 47 217 -7 216 -103c1 -81 -58 -160 -117 -207
c-73 -58 -180 -97 -277 -68zM254 460l-117 -255c147 -37 321 139 321 230c0 60 -94 83 -204 25z" />
    <glyph glyph-name="thorn" unicode="&#xfe;" horiz-adv-x="278" 
d="M-41 26c70 133 161 312 181 348c10 14 102 188 133 236c8 12 18 34 34 34c11 0 19 -10 19 -20c0 -13 3 -8 -36 -72c-34 -62 -90 -172 -129 -236l2 -2c19 13 42 29 68 29c33 0 47 -20 47 -52c0 -87 -113 -252 -207 -252c-19 0 -32 7 -46 18c-49 -99 -83 -183 -126 -291
c-4 -10 -13 -36 -26 -36s-23 15 -23 26c0 35 90 229 109 270zM68 144l-23 -44c7 -9 18 -12 28 -12c46 0 89 59 112 94c13 21 39 69 39 95c0 12 -8 19 -20 19c-23 0 -56 -31 -70 -47c-28 -30 -47 -69 -66 -105z" />
    <glyph glyph-name="twosuperior" unicode="&#xb2;" horiz-adv-x="292" 
d="M92 463c68 51 136 88 217 139c16 10 36 28 36 45c0 16 -9 27 -29 22c-53 0 -98 -46 -113 -46c-7 0 -15 7 -15 17c0 15 69 65 141 65c37 0 77 -19 71 -59c-8 -51 -63 -76 -110 -102c-58 -32 -116 -65 -160 -95l2 -2c23 11 65 18 106 18c18 0 50 -4 50 -31
c1 -8 -7 -16 -16 -16c-5 0 -10 1 -14 2c-13 3 -19 3 -33 3c-36 0 -59 -6 -93 -13c-12 -3 -38 -9 -50 -9c-16 0 -28 12 -28 24c0 13 26 29 38 38z" />
    <glyph glyph-name="registered" unicode="&#xae;" horiz-adv-x="740" 
d="M750 336c0 -192 -156 -346 -348 -346c-190 0 -346 156 -346 345c0 191 154 348 345 348c193 0 349 -154 349 -347zM700 336c0 165 -135 297 -299 297c-163 0 -295 -135 -295 -298c0 -162 134 -295 296 -295c163 0 298 132 298 296zM342 336v-130c0 -23 2 -33 20 -36h21
v-13h-143v14l10 1c24 2 31 3 32 29v296c-1 26 -8 27 -32 29l-10 1v14h150c68 0 146 -11 146 -97c0 -63 -55 -93 -110 -99v-2c45 -5 69 -70 86 -107c14 -32 27 -71 70 -66v-13h-34c-21 0 -45 -2 -62 13c-16 14 -31 54 -39 72c-9 23 -23 62 -41 80c-18 17 -32 14 -39 14h-25z
M342 351h11c56 0 131 12 124 89c0 60 -41 86 -97 86h-16c-23 0 -22 -19 -22 -44v-131z" />
    <glyph glyph-name="eth" unicode="&#xf0;" horiz-adv-x="245" 
d="M95 236c-20 -28 -48 -83 -48 -118c0 -13 6 -27 22 -27c34 0 70 56 84 84c20 39 46 90 46 123c0 10 -5 18 -15 18c-26 0 -75 -61 -89 -80zM188 406c-21 -14 -42 -32 -64 -47c-8 -5 -19 4 -17 17c5 19 23 31 60 56c-5 5 -10 7 -17 10c-7 2 -16 4 -21 12c-6 11 -2 27 9 33
c22 13 53 -9 70 -29c74 32 100 33 111 25c10 -8 12 -16 0 -24c-35 -10 -79 -24 -92 -30c16 -32 22 -70 21 -107c-2 -56 -33 -119 -61 -167c-27 -47 -77 -121 -138 -121c-34 0 -51 31 -51 62c0 58 34 130 68 176c28 37 86 101 136 101c-3 12 -7 24 -14 33z" />
    <glyph glyph-name="threesuperior" unicode="&#xb3;" horiz-adv-x="241" 
d="M219 569c-11 0 -20 -4 -29 -4c-8 0 -12 6 -12 16c0 17 14 22 33 25c29 6 84 18 79 46c-2 13 -11 18 -27 18c-17 -5 -38 -12 -57 -21c-7 -3 -14 -8 -23 -8c-8 0 -14 10 -14 16c0 10 11 16 20 22c25 14 59 26 90 26c35 0 67 -18 67 -46c0 -35 -42 -61 -80 -73
c29 -8 41 -22 41 -46c0 -63 -84 -143 -168 -143c-41 0 -75 27 -75 58c0 16 8 34 33 34c9 0 20 -3 20 -12c0 -5 -2 -6 -2 -17s11 -25 35 -25c27 0 47 18 64 28c23 20 41 43 41 71c0 19 -13 35 -36 35z" />
    <glyph glyph-name="copyright" unicode="&#xa9;" horiz-adv-x="740" 
d="M750 336c0 -192 -156 -346 -348 -346c-190 0 -346 156 -346 345c0 191 154 348 345 348c193 0 349 -154 349 -347zM700 336c0 165 -135 297 -299 297c-163 0 -295 -135 -295 -298c0 -162 134 -295 296 -295c163 0 298 132 298 296zM552 510v-103h-27c0 17 -2 36 -7 53
c-13 38 -63 53 -100 53c-96 0 -133 -78 -133 -173c0 -88 38 -180 130 -180c56 0 100 30 123 79l22 -6c-27 -65 -92 -98 -161 -98c-111 0 -184 92 -184 198c0 120 81 202 201 202c45 0 93 -11 136 -25z" />
    <glyph glyph-name="Aacute" unicode="&#xc1;" 
d="M362 324l-195 -54c-176 -284 -89 -140 -141 -231c-28 -49 -46 -54 -57 -48c-12 7 -17 13 -13 30c5 15 14 39 128 219c-18 -3 -64 -26 -76 -26c-14 0 -21 11 -21 24c0 28 2 20 146 75c246 328 341 396 360 396c42 0 46 -28 21 -90c-29 -73 -54 -150 -72 -227
c55 0 67 2 67 -21c0 -20 -14 -32 -33 -32c-16 0 -33 1 -48 -4c-29 -113 -54 -264 -54 -299c0 -18 5 -48 -22 -48c-26 0 -34 31 -34 52c0 96 28 190 44 284zM215 339l162 41c-1 -5 27 83 78 231c-17 -11 -31 8 -240 -272zM457 823l48 61c7 12 15 22 30 22c10 0 20 -9 20 -18
c0 -16 -39 -61 -49 -74c-10 -12 -34 -45 -52 -45c-11 0 -16 10 -16 19c0 13 12 26 19 35z" />
    <glyph glyph-name="Acircumflex" unicode="&#xc2;" 
d="M362 324l-195 -54c-176 -284 -89 -140 -141 -231c-28 -49 -46 -54 -57 -48c-12 7 -17 13 -13 30c5 15 14 39 128 219c-18 -3 -64 -26 -76 -26c-14 0 -21 11 -21 24c0 28 2 20 146 75c246 328 341 396 360 396c42 0 46 -28 21 -90c-29 -73 -54 -150 -72 -227
c55 0 67 2 67 -21c0 -20 -14 -32 -33 -32c-16 0 -33 1 -48 -4c-29 -113 -54 -264 -54 -299c0 -18 5 -48 -22 -48c-26 0 -34 31 -34 52c0 96 28 190 44 284zM215 339l162 41c-1 -5 27 83 78 231c-17 -11 -31 8 -240 -272zM441 817c7 21 70 56 92 55c19 -1 68 -61 68 -83
c0 -9 -11 -20 -21 -20c-26 0 -42 49 -51 47c-19 7 -51 -34 -75 -25c-10 4 -16 18 -13 26z" />
    <glyph glyph-name="Adieresis" unicode="&#xc4;" 
d="M362 324l-195 -54c-176 -284 -89 -140 -141 -231c-28 -49 -46 -54 -57 -48c-12 7 -17 13 -13 30c5 15 14 39 128 219c-18 -3 -64 -26 -76 -26c-14 0 -21 11 -21 24c0 28 2 20 146 75c246 328 341 396 360 396c42 0 46 -28 21 -90c-29 -73 -54 -150 -72 -227
c55 0 67 2 67 -21c0 -20 -14 -32 -33 -32c-16 0 -33 1 -48 -4c-29 -113 -54 -264 -54 -299c0 -18 5 -48 -22 -48c-26 0 -34 31 -34 52c0 96 28 190 44 284zM215 339l162 41c-1 -5 27 83 78 231c-17 -11 -31 8 -240 -272zM501 917c15 0 24 -10 24 -24c0 -26 -35 -73 -63 -73
c-14 0 -23 10 -23 24c0 25 36 73 62 73zM608 917c15 0 24 -10 24 -24c0 -26 -35 -73 -63 -73c-14 0 -23 10 -23 24c0 25 36 73 62 73z" />
    <glyph glyph-name="Agrave" unicode="&#xc0;" 
d="M362 324l-195 -54c-176 -284 -89 -140 -141 -231c-28 -49 -46 -54 -57 -48c-12 7 -17 13 -13 30c5 15 14 39 128 219c-18 -3 -64 -26 -76 -26c-14 0 -21 11 -21 24c0 28 2 20 146 75c246 328 341 396 360 396c42 0 46 -28 21 -90c-29 -73 -54 -150 -72 -227
c55 0 67 2 67 -21c0 -20 -14 -32 -33 -32c-16 0 -33 1 -48 -4c-29 -113 -54 -264 -54 -299c0 -18 5 -48 -22 -48c-26 0 -34 31 -34 52c0 96 28 190 44 284zM215 339l162 41c-1 -5 27 83 78 231c-17 -11 -31 8 -240 -272zM475 884l48 -61c7 -9 19 -22 19 -35
c0 -9 -5 -19 -16 -19c-18 0 -42 33 -52 45c-10 13 -49 58 -49 74c0 9 10 18 20 18c15 0 23 -10 30 -22z" />
    <glyph glyph-name="Aring" unicode="&#xc5;" 
d="M362 324l-195 -54c-176 -284 -89 -140 -141 -231c-28 -49 -46 -54 -57 -48c-12 7 -17 13 -13 30c5 15 14 39 128 219c-18 -3 -64 -26 -76 -26c-14 0 -21 11 -21 24c0 28 2 20 146 75c246 328 341 396 360 396c42 0 46 -28 21 -90c-29 -73 -54 -150 -72 -227
c55 0 67 2 67 -21c0 -20 -14 -32 -33 -32c-16 0 -33 1 -48 -4c-29 -113 -54 -264 -54 -299c0 -18 5 -48 -22 -48c-26 0 -34 31 -34 52c0 96 28 190 44 284zM215 339l162 41c-1 -5 27 83 78 231c-17 -11 -31 8 -240 -272zM538 913c20 0 37 -16 37 -37
c0 -41 -59 -112 -102 -112c-20 0 -36 17 -36 37c0 43 55 112 101 112zM525 877c-22 0 -55 -44 -55 -65c0 -7 4 -14 11 -14c24 0 59 42 59 64c0 9 -6 15 -15 15z" />
    <glyph glyph-name="Atilde" unicode="&#xc3;" 
d="M362 324l-195 -54c-176 -284 -89 -140 -141 -231c-28 -49 -46 -54 -57 -48c-12 7 -17 13 -13 30c5 15 14 39 128 219c-18 -3 -64 -26 -76 -26c-14 0 -21 11 -21 24c0 28 2 20 146 75c246 328 341 396 360 396c42 0 46 -28 21 -90c-29 -73 -54 -150 -72 -227
c55 0 67 2 67 -21c0 -20 -14 -32 -33 -32c-16 0 -33 1 -48 -4c-29 -113 -54 -264 -54 -299c0 -18 5 -48 -22 -48c-26 0 -34 31 -34 52c0 96 28 190 44 284zM215 339l162 41c-1 -5 27 83 78 231c-17 -11 -31 8 -240 -272zM417 881c26 4 47 -7 74 -22c9 -5 24 -22 50 -26
c28 -8 45 34 58 34c8 0 13 -10 13 -20c0 -42 -51 -68 -75 -58s-46 18 -64 34c-11 10 -50 38 -64 8c-12 -26 -32 -20 -32 6c0 28 25 42 40 44z" />
    <glyph glyph-name="Ccedilla" unicode="&#xc7;" horiz-adv-x="441" 
d="M154 461c57 81 189 242 291 241c92 -1 89 -118 5 -234c-12 -17 -61 -78 -87 -78c-12 0 -56 23 4 70c72 53 110 129 110 165c0 18 -6 34 -27 34c-92 0 -380 -327 -380 -539c0 -44 27 -89 75 -89c78 0 197 143 231 208c14 25 30 15 30 3c0 -33 -123 -223 -250 -256
c-14 -15 -27 -36 -18 -41c12 -7 23 -19 23 -39c0 -42 -49 -84 -75 -103c-5 -5 -10 -6 -13 -4s-5 7 -1 12c10 7 46 38 46 63c0 19 -16 28 -33 34c-6 2 -7 14 -2 20c6 7 17 19 46 54c-3 -1 -5 -1 -8 -1c-62 0 -110 40 -115 120c-4 81 36 201 148 360z" />
    <glyph glyph-name="Eacute" unicode="&#xc9;" horiz-adv-x="416" 
d="M220 422l50 9c161 30 162 10 162 -9c0 -53 -58 -8 -246 -60c-52 -85 -95 -178 -127 -272c264 95 278 35 278 23c0 -27 -26 -24 -46 -24c-74 -1 -160 -23 -225 -58c-11 -6 -28 -17 -42 -17c-19 0 -35 23 -35 40c0 32 100 274 213 446l79 121c-13 1 -20 14 -20 27
c0 20 14 24 31 29c72 22 204 37 280 37c18 0 47 0 47 -25c0 -21 -19 -32 -44 -32c-80 0 -161 -6 -237 -27c10 -11 7 -18 -9 -40c-32 -45 12 24 -109 -168zM430 823l48 61c7 12 15 22 30 22c10 0 20 -9 20 -18c0 -16 -39 -61 -49 -74c-10 -12 -34 -45 -52 -45
c-11 0 -16 10 -16 19c0 13 12 26 19 35z" />
    <glyph glyph-name="Ecircumflex" unicode="&#xca;" horiz-adv-x="416" 
d="M220 422l50 9c161 30 162 10 162 -9c0 -53 -58 -8 -246 -60c-52 -85 -95 -178 -127 -272c264 95 278 35 278 23c0 -27 -26 -24 -46 -24c-74 -1 -160 -23 -225 -58c-11 -6 -28 -17 -42 -17c-19 0 -35 23 -35 40c0 32 100 274 213 446l79 121c-13 1 -20 14 -20 27
c0 20 14 24 31 29c72 22 204 37 280 37c18 0 47 0 47 -25c0 -21 -19 -32 -44 -32c-80 0 -161 -6 -237 -27c10 -11 7 -18 -9 -40c-32 -45 12 24 -109 -168zM414 817c7 21 70 56 92 55c19 -1 68 -61 68 -83c0 -9 -11 -20 -21 -20c-26 0 -42 49 -51 47c-19 7 -51 -34 -75 -25
c-10 4 -16 18 -13 26z" />
    <glyph glyph-name="Edieresis" unicode="&#xcb;" horiz-adv-x="416" 
d="M220 422l50 9c161 30 162 10 162 -9c0 -53 -58 -8 -246 -60c-52 -85 -95 -178 -127 -272c264 95 278 35 278 23c0 -27 -26 -24 -46 -24c-74 -1 -160 -23 -225 -58c-11 -6 -28 -17 -42 -17c-19 0 -35 23 -35 40c0 32 100 274 213 446l79 121c-13 1 -20 14 -20 27
c0 20 14 24 31 29c72 22 204 37 280 37c18 0 47 0 47 -25c0 -21 -19 -32 -44 -32c-80 0 -161 -6 -237 -27c10 -11 7 -18 -9 -40c-32 -45 12 24 -109 -168zM474 917c15 0 24 -10 24 -24c0 -26 -35 -73 -63 -73c-14 0 -23 10 -23 24c0 25 36 73 62 73zM581 917
c15 0 24 -10 24 -24c0 -26 -35 -73 -63 -73c-14 0 -23 10 -23 24c0 25 36 73 62 73z" />
    <glyph glyph-name="Egrave" unicode="&#xc8;" horiz-adv-x="416" 
d="M220 422l50 9c161 30 162 10 162 -9c0 -53 -58 -8 -246 -60c-52 -85 -95 -178 -127 -272c264 95 278 35 278 23c0 -27 -26 -24 -46 -24c-74 -1 -160 -23 -225 -58c-11 -6 -28 -17 -42 -17c-19 0 -35 23 -35 40c0 32 100 274 213 446l79 121c-13 1 -20 14 -20 27
c0 20 14 24 31 29c72 22 204 37 280 37c18 0 47 0 47 -25c0 -21 -19 -32 -44 -32c-80 0 -161 -6 -237 -27c10 -11 7 -18 -9 -40c-32 -45 12 24 -109 -168zM460 884l48 -61c7 -9 19 -22 19 -35c0 -9 -5 -19 -16 -19c-18 0 -42 33 -52 45c-10 13 -49 58 -49 74
c0 9 10 18 20 18c15 0 23 -10 30 -22z" />
    <glyph glyph-name="Iacute" unicode="&#xcd;" horiz-adv-x="238" 
d="M304 544c-210 -306 -240 -444 -250 -489c-3 -15 -8 -37 -28 -37c-16 0 -28 18 -28 33c0 49 51 176 82 229c92 158 197 351 268 414c15 13 35 -10 35 -22c0 -25 -51 -88 -79 -128zM341 823l48 61c7 12 15 22 30 22c10 0 20 -9 20 -18c0 -16 -39 -61 -49 -74
c-10 -12 -34 -45 -52 -45c-11 0 -16 10 -16 19c0 13 12 26 19 35z" />
    <glyph glyph-name="Icircumflex" unicode="&#xce;" horiz-adv-x="238" 
d="M304 544c-210 -306 -240 -444 -250 -489c-3 -15 -8 -37 -28 -37c-16 0 -28 18 -28 33c0 49 51 176 82 229c92 158 197 351 268 414c15 13 35 -10 35 -22c0 -25 -51 -88 -79 -128zM325 817c7 21 70 56 92 55c19 -1 68 -61 68 -83c0 -9 -11 -20 -21 -20
c-26 0 -42 49 -51 47c-19 7 -51 -34 -75 -25c-10 4 -16 18 -13 26z" />
    <glyph glyph-name="Idieresis" unicode="&#xcf;" horiz-adv-x="238" 
d="M304 544c-210 -306 -240 -444 -250 -489c-3 -15 -8 -37 -28 -37c-16 0 -28 18 -28 33c0 49 51 176 82 229c92 158 197 351 268 414c15 13 35 -10 35 -22c0 -25 -51 -88 -79 -128zM385 917c15 0 24 -10 24 -24c0 -26 -35 -73 -63 -73c-14 0 -23 10 -23 24
c0 25 36 73 62 73zM492 917c15 0 24 -10 24 -24c0 -26 -35 -73 -63 -73c-14 0 -23 10 -23 24c0 25 36 73 62 73z" />
    <glyph glyph-name="Igrave" unicode="&#xcc;" horiz-adv-x="238" 
d="M304 544c-210 -306 -240 -444 -250 -489c-3 -15 -8 -37 -28 -37c-16 0 -28 18 -28 33c0 49 51 176 82 229c92 158 197 351 268 414c15 13 35 -10 35 -22c0 -25 -51 -88 -79 -128zM371 884l48 -61c7 -9 19 -22 19 -35c0 -9 -5 -19 -16 -19c-18 0 -42 33 -52 45
c-10 13 -49 58 -49 74c0 9 10 18 20 18c15 0 23 -10 30 -22z" />
    <glyph glyph-name="Ntilde" unicode="&#xd1;" horiz-adv-x="526" 
d="M311 166l1 -50h2l154 339l93 173c15 27 50 98 87 98c23 0 27 -13 -19 -82c-106 -168 -199 -344 -263 -532c-12 -36 -34 -113 -83 -113c-17 0 -24 15 -28 32c-6 35 -7 231 66 529l-2 2c-85 -102 -212 -330 -263 -487c-8 -27 -20 -84 -58 -84c-12 0 -19 12 -19 23
c0 34 78 215 201 410c78 124 156 274 210 271c11 -1 28 -10 13 -41c-48 -126 -92 -354 -92 -488zM403 881c26 4 47 -7 74 -22c9 -5 24 -22 50 -26c28 -8 45 34 58 34c8 0 13 -10 13 -20c0 -42 -51 -68 -75 -58s-46 18 -64 34c-11 10 -50 38 -64 8c-12 -26 -32 -20 -32 6
c0 28 25 42 40 44z" />
    <glyph glyph-name="Oacute" unicode="&#xd3;" 
d="M356 597l-26 -27c-218 -228 -257 -384 -257 -458c0 -30 11 -59 46 -59c99 0 365 328 365 505c0 52 -32 88 -84 88l-32 -2c16 -16 10 -25 -12 -47zM544 564c0 -110 -84 -248 -148 -335c-58 -78 -193 -240 -296 -240c-59 0 -87 58 -87 110c0 182 190 429 328 540
c-33 -4 -62 -20 -91 -36c-5 -2 -12 -6 -18 -6c-5 0 -60 24 16 63c66 34 125 47 172 41c77 -10 123 -62 124 -137zM457 823l48 61c7 12 15 22 30 22c10 0 20 -9 20 -18c0 -16 -39 -61 -49 -74c-10 -12 -34 -45 -52 -45c-11 0 -16 10 -16 19c0 13 12 26 19 35z" />
    <glyph glyph-name="Ocircumflex" unicode="&#xd4;" 
d="M356 597l-26 -27c-218 -228 -257 -384 -257 -458c0 -30 11 -59 46 -59c99 0 365 328 365 505c0 52 -32 88 -84 88l-32 -2c16 -16 10 -25 -12 -47zM544 564c0 -110 -84 -248 -148 -335c-58 -78 -193 -240 -296 -240c-59 0 -87 58 -87 110c0 182 190 429 328 540
c-33 -4 -62 -20 -91 -36c-5 -2 -12 -6 -18 -6c-5 0 -60 24 16 63c66 34 125 47 172 41c77 -10 123 -62 124 -137zM391 817c7 21 70 56 92 55c19 -1 68 -61 68 -83c0 -9 -11 -20 -21 -20c-26 0 -42 49 -51 47c-19 7 -51 -34 -75 -25c-10 4 -16 18 -13 26z" />
    <glyph glyph-name="Odieresis" unicode="&#xd6;" 
d="M356 597l-26 -27c-218 -228 -257 -384 -257 -458c0 -30 11 -59 46 -59c99 0 365 328 365 505c0 52 -32 88 -84 88l-32 -2c16 -16 10 -25 -12 -47zM544 564c0 -110 -84 -248 -148 -335c-58 -78 -193 -240 -296 -240c-59 0 -87 58 -87 110c0 182 190 429 328 540
c-33 -4 -62 -20 -91 -36c-5 -2 -12 -6 -18 -6c-5 0 -60 24 16 63c66 34 125 47 172 41c77 -10 123 -62 124 -137zM451 897c15 0 24 -10 24 -24c0 -26 -35 -73 -63 -73c-14 0 -23 10 -23 24c0 25 36 73 62 73zM558 897c15 0 24 -10 24 -24c0 -26 -35 -73 -63 -73
c-14 0 -23 10 -23 24c0 25 36 73 62 73z" />
    <glyph glyph-name="Ograve" unicode="&#xd2;" 
d="M356 597l-26 -27c-218 -228 -257 -384 -257 -458c0 -30 11 -59 46 -59c99 0 365 328 365 505c0 52 -32 88 -84 88l-32 -2c16 -16 10 -25 -12 -47zM544 564c0 -110 -84 -248 -148 -335c-58 -78 -193 -240 -296 -240c-59 0 -87 58 -87 110c0 182 190 429 328 540
c-33 -4 -62 -20 -91 -36c-5 -2 -12 -6 -18 -6c-5 0 -60 24 16 63c66 34 125 47 172 41c77 -10 123 -62 124 -137zM435 884l48 -61c7 -9 19 -22 19 -35c0 -9 -5 -19 -16 -19c-18 0 -42 33 -52 45c-10 13 -49 58 -49 74c0 9 10 18 20 18c15 0 23 -10 30 -22z" />
    <glyph glyph-name="Otilde" unicode="&#xd5;" 
d="M356 597l-26 -27c-218 -228 -257 -384 -257 -458c0 -30 11 -59 46 -59c99 0 365 328 365 505c0 52 -32 88 -84 88l-32 -2c16 -16 10 -25 -12 -47zM544 564c0 -110 -84 -248 -148 -335c-58 -78 -193 -240 -296 -240c-59 0 -87 58 -87 110c0 182 190 429 328 540
c-33 -4 -62 -20 -91 -36c-5 -2 -12 -6 -18 -6c-5 0 -60 24 16 63c66 34 125 47 172 41c77 -10 123 -62 124 -137zM375 881c26 4 47 -7 74 -22c9 -5 24 -22 50 -26c28 -8 45 34 58 34c8 0 13 -10 13 -20c0 -42 -51 -68 -75 -58s-46 18 -64 34c-11 10 -50 38 -64 8
c-12 -26 -32 -20 -32 6c0 28 25 42 40 44z" />
    <glyph glyph-name="Scaron" unicode="&#x160;" horiz-adv-x="415" 
d="M94 239c14 0 24 -10 24 -24c0 -35 -70 -14 -70 -83c0 -109 233 -72 233 39c0 76 -115 160 -115 257c0 74 43 135 96 182s134 94 206 94c43 0 80 -23 80 -69c0 -61 -57 -117 -101 -152c-28 -22 -95 -68 -131 -68c-22 0 -52 35 7 56c36 12 71 31 101 54
c93 75 82 130 36 130s-109 -34 -145 -62c-44 -33 -94 -95 -94 -154c0 -99 119 -188 119 -270c0 -97 -118 -152 -202 -152c-207 0 -172 222 -44 222zM555 839c-7 -21 -70 -56 -92 -55c-19 1 -68 61 -68 83c0 9 11 20 21 20c26 0 42 -49 51 -47c19 -7 51 34 75 25
c10 -4 16 -18 13 -26z" />
    <glyph glyph-name="Uacute" unicode="&#xda;" horiz-adv-x="549" 
d="M174 136l109 137l273 345l45 49c10 10 18 16 32 16c12 0 23 -11 23 -23c0 -14 -15 -36 -23 -47c-64 -88 -111 -173 -157 -274c-34 -75 -93 -215 -97 -296c0 -15 3 -43 -19 -43c-35 0 -59 39 8 217c68 166 78 172 110 231l-2 2l-144 -190l-40 -54
c-40 -54 -154 -213 -222 -213c-41 0 -58 48 -58 82c0 107 89 279 147 369c28 44 174 255 220 255c9 0 46 -19 -3 -64c-145 -165 -168 -203 -224 -307c-110 -208 -91 -267 -64 -267c28 0 69 56 86 75zM496 823l48 61c7 12 15 22 30 22c10 0 20 -9 20 -18
c0 -16 -39 -61 -49 -74c-10 -12 -34 -45 -52 -45c-11 0 -16 10 -16 19c0 13 12 26 19 35z" />
    <glyph glyph-name="Ucircumflex" unicode="&#xdb;" horiz-adv-x="549" 
d="M174 136l109 137l273 345l45 49c10 10 18 16 32 16c12 0 23 -11 23 -23c0 -14 -15 -36 -23 -47c-64 -88 -111 -173 -157 -274c-34 -75 -93 -215 -97 -296c0 -15 3 -43 -19 -43c-35 0 -59 39 8 217c68 166 78 172 110 231l-2 2l-144 -190l-40 -54
c-40 -54 -154 -213 -222 -213c-41 0 -58 48 -58 82c0 107 89 279 147 369c28 44 174 255 220 255c9 0 46 -19 -3 -64c-145 -165 -168 -203 -224 -307c-110 -208 -91 -267 -64 -267c28 0 69 56 86 75zM480 817c7 21 70 56 92 55c19 -1 68 -61 68 -83c0 -9 -11 -20 -21 -20
c-26 0 -42 49 -51 47c-19 7 -51 -34 -75 -25c-10 4 -16 18 -13 26z" />
    <glyph glyph-name="Udieresis" unicode="&#xdc;" horiz-adv-x="549" 
d="M174 136l109 137l273 345l45 49c10 10 18 16 32 16c12 0 23 -11 23 -23c0 -14 -15 -36 -23 -47c-64 -88 -111 -173 -157 -274c-34 -75 -93 -215 -97 -296c0 -15 3 -43 -19 -43c-35 0 -59 39 8 217c68 166 78 172 110 231l-2 2l-144 -190l-40 -54
c-40 -54 -154 -213 -222 -213c-41 0 -58 48 -58 82c0 107 89 279 147 369c28 44 174 255 220 255c9 0 46 -19 -3 -64c-145 -165 -168 -203 -224 -307c-110 -208 -91 -267 -64 -267c28 0 69 56 86 75zM490 897c15 0 24 -10 24 -24c0 -26 -35 -73 -63 -73c-14 0 -23 10 -23 24
c0 25 36 73 62 73zM597 897c15 0 24 -10 24 -24c0 -26 -35 -73 -63 -73c-14 0 -23 10 -23 24c0 25 36 73 62 73z" />
    <glyph glyph-name="Ugrave" unicode="&#xd9;" horiz-adv-x="549" 
d="M174 136l109 137l273 345l45 49c10 10 18 16 32 16c12 0 23 -11 23 -23c0 -14 -15 -36 -23 -47c-64 -88 -111 -173 -157 -274c-34 -75 -93 -215 -97 -296c0 -15 3 -43 -19 -43c-35 0 -59 39 8 217c68 166 78 172 110 231l-2 2l-144 -190l-40 -54
c-40 -54 -154 -213 -222 -213c-41 0 -58 48 -58 82c0 107 89 279 147 369c28 44 174 255 220 255c9 0 46 -19 -3 -64c-145 -165 -168 -203 -224 -307c-110 -208 -91 -267 -64 -267c28 0 69 56 86 75zM526 884l48 -61c7 -9 19 -22 19 -35c0 -9 -5 -19 -16 -19
c-18 0 -42 33 -52 45c-10 13 -49 58 -49 74c0 9 10 18 20 18c15 0 23 -10 30 -22z" />
    <glyph glyph-name="Yacute" unicode="&#xdd;" horiz-adv-x="435" 
d="M281 280l57 94l-2 2c-68 -58 -139 -153 -212 -158c-37 0 -53 38 -53 70c0 146 219 398 297 405c11 1 21 -8 21 -19c0 -40 -77 -50 -171 -175c-28 -39 -88 -146 -88 -192c0 -12 8 -24 20 -24c30 0 132 71 248 217c50 63 100 127 150 190c10 12 26 31 42 31
c15 0 23 -18 23 -31c0 -16 -10 -30 -19 -42c-144 -182 -284 -388 -375 -629c-8 -21 -16 -59 -45 -59c-15 0 -25 9 -25 25c0 58 99 240 132 295zM439 823l48 61c7 12 15 22 30 22c10 0 20 -9 20 -18c0 -16 -39 -61 -49 -74c-10 -12 -34 -45 -52 -45c-11 0 -16 10 -16 19
c0 13 12 26 19 35z" />
    <glyph glyph-name="Ydieresis" unicode="&#x178;" horiz-adv-x="435" 
d="M281 280l57 94l-2 2c-68 -58 -139 -153 -212 -158c-37 0 -53 38 -53 70c0 146 219 398 297 405c11 1 21 -8 21 -19c0 -40 -77 -50 -171 -175c-28 -39 -88 -146 -88 -192c0 -12 8 -24 20 -24c30 0 132 71 248 217c50 63 100 127 150 190c10 12 26 31 42 31
c15 0 23 -18 23 -31c0 -16 -10 -30 -19 -42c-144 -182 -284 -388 -375 -629c-8 -21 -16 -59 -45 -59c-15 0 -25 9 -25 25c0 58 99 240 132 295zM483 917c15 0 24 -10 24 -24c0 -26 -35 -73 -63 -73c-14 0 -23 10 -23 24c0 25 36 73 62 73zM590 917c15 0 24 -10 24 -24
c0 -26 -35 -73 -63 -73c-14 0 -23 10 -23 24c0 25 36 73 62 73z" />
    <glyph glyph-name="Zcaron" unicode="&#x17d;" horiz-adv-x="406" 
d="M443 664l-184 -21c-19 0 -67 9 -67 35c0 13 13 27 26 27c11 0 18 -11 59 -11c65 0 132 10 195 22c24 4 48 8 72 8c19 0 42 -5 42 -29c0 -25 -37 -46 -53 -60c-147 -129 -311 -277 -427 -424c-39 -46 -80 -93 -107 -148c68 5 134 31 197 54c25 9 85 31 109 31
c16 0 25 -10 25 -26c0 -24 -22 -27 -42 -31c-96 -15 -224 -84 -288 -84c-32 0 -57 19 -57 53c0 36 38 79 59 106c138 176 300 348 484 503zM523 839c-7 -21 -70 -56 -92 -55c-19 1 -68 61 -68 83c0 9 11 20 21 20c26 0 42 -49 51 -47c19 -7 51 34 75 25c10 -4 16 -18 13 -26
z" />
    <glyph glyph-name="aacute" unicode="&#xe1;" horiz-adv-x="273" 
d="M148 94l2 29l-2 2c-19 -35 -51 -90 -97 -90c-37 0 -53 36 -53 68c0 93 102 269 205 269c22 0 49 -15 49 -40c0 -12 -4 -21 -9 -32c5 -6 8 -11 8 -19c0 -13 -9 -25 -15 -35c-18 -30 -46 -101 -46 -136c0 -21 7 -37 26 -46c11 -5 21 -11 21 -25s-12 -23 -25 -23
c-36 0 -64 31 -64 78zM214 295c-6 11 -14 22 -29 22c-62 0 -135 -142 -135 -196c0 -12 5 -27 20 -27c58 4 108 180 144 201zM208 466l48 61c7 12 15 22 30 22c10 0 20 -9 20 -18c0 -16 -39 -61 -49 -74c-10 -12 -34 -45 -52 -45c-11 0 -16 10 -16 19c0 13 12 26 19 35z" />
    <glyph glyph-name="acircumflex" unicode="&#xe2;" horiz-adv-x="273" 
d="M148 94l2 29l-2 2c-19 -35 -51 -90 -97 -90c-37 0 -53 36 -53 68c0 93 102 269 205 269c22 0 49 -15 49 -40c0 -12 -4 -21 -9 -32c5 -6 8 -11 8 -19c0 -13 -9 -25 -15 -35c-18 -30 -46 -101 -46 -136c0 -21 7 -37 26 -46c11 -5 21 -11 21 -25s-12 -23 -25 -23
c-36 0 -64 31 -64 78zM214 295c-6 11 -14 22 -29 22c-62 0 -135 -142 -135 -196c0 -12 5 -27 20 -27c58 4 108 180 144 201zM142 450c7 21 70 56 92 55c19 -1 68 -61 68 -83c0 -9 -11 -20 -21 -20c-26 0 -42 49 -51 47c-19 7 -51 -34 -75 -25c-10 4 -16 18 -13 26z" />
    <glyph glyph-name="adieresis" unicode="&#xe4;" horiz-adv-x="273" 
d="M148 94l2 29l-2 2c-19 -35 -51 -90 -97 -90c-37 0 -53 36 -53 68c0 93 102 269 205 269c22 0 49 -15 49 -40c0 -12 -4 -21 -9 -32c5 -6 8 -11 8 -19c0 -13 -9 -25 -15 -35c-18 -30 -46 -101 -46 -136c0 -21 7 -37 26 -46c11 -5 21 -11 21 -25s-12 -23 -25 -23
c-36 0 -64 31 -64 78zM214 295c-6 11 -14 22 -29 22c-62 0 -135 -142 -135 -196c0 -12 5 -27 20 -27c58 4 108 180 144 201zM177 520c15 0 24 -10 24 -24c0 -26 -35 -73 -63 -73c-14 0 -23 10 -23 24c0 25 36 73 62 73zM284 520c15 0 24 -10 24 -24c0 -26 -35 -73 -63 -73
c-14 0 -23 10 -23 24c0 25 36 73 62 73z" />
    <glyph glyph-name="agrave" unicode="&#xe0;" horiz-adv-x="273" 
d="M148 94l2 29l-2 2c-19 -35 -51 -90 -97 -90c-37 0 -53 36 -53 68c0 93 102 269 205 269c22 0 49 -15 49 -40c0 -12 -4 -21 -9 -32c5 -6 8 -11 8 -19c0 -13 -9 -25 -15 -35c-18 -30 -46 -101 -46 -136c0 -21 7 -37 26 -46c11 -5 21 -11 21 -25s-12 -23 -25 -23
c-36 0 -64 31 -64 78zM214 295c-6 11 -14 22 -29 22c-62 0 -135 -142 -135 -196c0 -12 5 -27 20 -27c58 4 108 180 144 201zM188 517l48 -61c7 -9 19 -22 19 -35c0 -9 -5 -19 -16 -19c-18 0 -42 33 -52 45c-10 13 -49 58 -49 74c0 9 10 18 20 18c15 0 23 -10 30 -22z" />
    <glyph glyph-name="aring" unicode="&#xe5;" horiz-adv-x="273" 
d="M148 94l2 29l-2 2c-19 -35 -51 -90 -97 -90c-37 0 -53 36 -53 68c0 93 102 269 205 269c22 0 49 -15 49 -40c0 -12 -4 -21 -9 -32c5 -6 8 -11 8 -19c0 -13 -9 -25 -15 -35c-18 -30 -46 -101 -46 -136c0 -21 7 -37 26 -46c11 -5 21 -11 21 -25s-12 -23 -25 -23
c-36 0 -64 31 -64 78zM214 295c-6 11 -14 22 -29 22c-62 0 -135 -142 -135 -196c0 -12 5 -27 20 -27c58 4 108 180 144 201zM239 546c20 0 37 -16 37 -37c0 -41 -59 -112 -102 -112c-20 0 -36 17 -36 37c0 43 55 112 101 112zM226 510c-22 0 -55 -44 -55 -65
c0 -7 4 -14 11 -14c24 0 59 42 59 64c0 9 -6 15 -15 15z" />
    <glyph glyph-name="atilde" unicode="&#xe3;" horiz-adv-x="273" 
d="M148 94l2 29l-2 2c-19 -35 -51 -90 -97 -90c-37 0 -53 36 -53 68c0 93 102 269 205 269c22 0 49 -15 49 -40c0 -12 -4 -21 -9 -32c5 -6 8 -11 8 -19c0 -13 -9 -25 -15 -35c-18 -30 -46 -101 -46 -136c0 -21 7 -37 26 -46c11 -5 21 -11 21 -25s-12 -23 -25 -23
c-36 0 -64 31 -64 78zM214 295c-6 11 -14 22 -29 22c-62 0 -135 -142 -135 -196c0 -12 5 -27 20 -27c58 4 108 180 144 201zM177 514c26 4 47 -7 74 -22c9 -5 24 -22 50 -26c28 -8 45 34 58 34c8 0 13 -10 13 -20c0 -42 -51 -68 -75 -58s-46 18 -64 34c-11 10 -50 38 -64 8
c-12 -26 -32 -20 -32 6c0 28 25 42 40 44z" />
    <glyph glyph-name="ccedilla" unicode="&#xe7;" horiz-adv-x="289" 
d="M120 40c-38 -31 -53 -59 -43 -65c12 -7 23 -19 23 -39c0 -42 -49 -84 -75 -103c-5 -5 -10 -6 -13 -4s-5 7 -1 12c10 7 46 38 46 63c0 19 -16 28 -33 34c-6 2 -7 14 -2 20c8 9 24 27 60 71c-3 -1 -6 -1 -10 -1c-44 0 -74 30 -73 74c2 116 135 257 203 257
c25 0 38 -19 38 -44c0 -39 -41 -103 -68 -103c-5 0 -34 13 0 42c24 24 34 54 17 54c-37 0 -137 -126 -139 -198c0 -18 13 -34 32 -34c49 0 114 73 141 110c28 39 38 6 38 1c0 -17 -35 -56 -45 -67c-25 -28 -58 -62 -96 -80z" />
    <glyph glyph-name="eacute" unicode="&#xe9;" horiz-adv-x="289" 
d="M62 179c35 11 61 29 87 57c11 12 34 38 34 56c0 7 -4 11 -11 11c-17 0 -43 -22 -65 -49c-22 -26 -41 -57 -45 -75zM194 357c20 0 38 -15 38 -36c0 -60 -81 -156 -181 -182c-5 -31 17 -48 47 -48c86 0 154 116 174 116c7 0 15 -7 14 -14c-3 -35 -130 -157 -212 -154
c-45 2 -77 29 -77 77c0 126 140 241 197 241zM192 456l48 61c7 12 15 22 30 22c10 0 20 -9 20 -18c0 -16 -39 -61 -49 -74c-10 -12 -34 -45 -52 -45c-11 0 -16 10 -16 19c0 13 12 26 19 35z" />
    <glyph glyph-name="ecircumflex" unicode="&#xea;" horiz-adv-x="289" 
d="M62 179c35 11 61 29 87 57c11 12 34 38 34 56c0 7 -4 11 -11 11c-17 0 -43 -22 -65 -49c-22 -26 -41 -57 -45 -75zM194 357c20 0 38 -15 38 -36c0 -60 -81 -156 -181 -182c-5 -31 17 -48 47 -48c86 0 154 116 174 116c7 0 15 -7 14 -14c-3 -35 -130 -157 -212 -154
c-45 2 -77 29 -77 77c0 126 140 241 197 241zM138 450c7 21 70 56 92 55c19 -1 68 -61 68 -83c0 -9 -11 -20 -21 -20c-26 0 -42 49 -51 47c-19 7 -51 -34 -75 -25c-10 4 -16 18 -13 26z" />
    <glyph glyph-name="edieresis" unicode="&#xeb;" horiz-adv-x="289" 
d="M62 179c35 11 61 29 87 57c11 12 34 38 34 56c0 7 -4 11 -11 11c-17 0 -43 -22 -65 -49c-22 -26 -41 -57 -45 -75zM194 357c20 0 38 -15 38 -36c0 -60 -81 -156 -181 -182c-5 -31 17 -48 47 -48c86 0 154 116 174 116c7 0 15 -7 14 -14c-3 -35 -130 -157 -212 -154
c-45 2 -77 29 -77 77c0 126 140 241 197 241zM210 530c15 0 24 -10 24 -24c0 -26 -35 -73 -63 -73c-14 0 -23 10 -23 24c0 25 36 73 62 73zM317 530c15 0 24 -10 24 -24c0 -26 -35 -73 -63 -73c-14 0 -23 10 -23 24c0 25 36 73 62 73z" />
    <glyph glyph-name="egrave" unicode="&#xe8;" horiz-adv-x="289" 
d="M62 179c35 11 61 29 87 57c11 12 34 38 34 56c0 7 -4 11 -11 11c-17 0 -43 -22 -65 -49c-22 -26 -41 -57 -45 -75zM194 357c20 0 38 -15 38 -36c0 -60 -81 -156 -181 -182c-5 -31 17 -48 47 -48c86 0 154 116 174 116c7 0 15 -7 14 -14c-3 -35 -130 -157 -212 -154
c-45 2 -77 29 -77 77c0 126 140 241 197 241zM196 517l48 -61c7 -9 19 -22 19 -35c0 -9 -5 -19 -16 -19c-18 0 -42 33 -52 45c-10 13 -49 58 -49 74c0 9 10 18 20 18c15 0 23 -10 30 -22z" />
    <glyph glyph-name="iacute" unicode="&#xed;" horiz-adv-x="139" 
d="M-15 48c0 61 128 301 163 301c10 0 19 -8 19 -19c0 -22 -81 -102 -129 -264c-5 -17 -9 -42 -31 -42c-13 0 -22 12 -22 24zM129 456l48 61c7 12 15 22 30 22c10 0 20 -9 20 -18c0 -16 -39 -61 -49 -74c-10 -12 -34 -45 -52 -45c-11 0 -16 10 -16 19c0 13 12 26 19 35z" />
    <glyph glyph-name="icircumflex" unicode="&#xee;" horiz-adv-x="139" 
d="M-15 48c0 61 128 301 163 301c10 0 19 -8 19 -19c0 -22 -81 -102 -129 -264c-5 -17 -9 -42 -31 -42c-13 0 -22 12 -22 24zM100 450c7 21 70 56 92 55c19 -1 68 -61 68 -83c0 -9 -11 -20 -21 -20c-26 0 -42 49 -51 47c-19 7 -51 -34 -75 -25c-10 4 -16 18 -13 26z" />
    <glyph glyph-name="idieresis" unicode="&#xef;" horiz-adv-x="139" 
d="M-15 48c0 61 128 301 163 301c10 0 19 -8 19 -19c0 -22 -81 -102 -129 -264c-5 -17 -9 -42 -31 -42c-13 0 -22 12 -22 24zM115 510c15 0 24 -10 24 -24c0 -26 -35 -73 -63 -73c-14 0 -23 10 -23 24c0 25 36 73 62 73zM222 510c15 0 24 -10 24 -24c0 -26 -35 -73 -63 -73
c-14 0 -23 10 -23 24c0 25 36 73 62 73z" />
    <glyph glyph-name="igrave" unicode="&#xec;" horiz-adv-x="139" 
d="M-15 48c0 61 128 301 163 301c10 0 19 -8 19 -19c0 -22 -81 -102 -129 -264c-5 -17 -9 -42 -31 -42c-13 0 -22 12 -22 24zM121 517l48 -61c7 -9 19 -22 19 -35c0 -9 -5 -19 -16 -19c-18 0 -42 33 -52 45c-10 13 -49 58 -49 74c0 9 10 18 20 18c15 0 23 -10 30 -22z" />
    <glyph glyph-name="ntilde" unicode="&#xf1;" horiz-adv-x="271" 
d="M136 329c12 0 22 -10 22 -22c0 -22 -42 -66 -48 -88l2 -2c25 29 115 118 152 118c13 0 21 -9 21 -24c-1 -34 -111 -113 -116 -237c0 -43 22 -59 22 -72c0 -11 -10 -21 -21 -21c-40 0 -50 62 -50 92c0 52 24 108 52 149l-2 2c-52 -34 -88 -86 -118 -141
c-8 -14 -21 -45 -42 -45c-15 0 -23 11 -23 25c0 16 12 41 19 56c18 36 99 210 130 210zM176 514c26 4 47 -7 74 -22c9 -5 24 -22 50 -26c28 -8 45 34 58 34c8 0 13 -10 13 -20c0 -42 -51 -68 -75 -58s-46 18 -64 34c-11 10 -50 38 -64 8c-12 -26 -32 -20 -32 6
c0 28 25 42 40 44z" />
    <glyph glyph-name="oacute" unicode="&#xf3;" horiz-adv-x="245" 
d="M207 373c32 0 44 -21 44 -51c0 -56 -31 -119 -59 -167c-27 -47 -77 -121 -138 -121c-34 0 -51 31 -51 62c0 58 34 130 68 176c28 37 86 101 136 101zM156 178c-5 4 -14 10 -14 17s63 65 63 104c0 10 -5 18 -15 18c-26 0 -75 -61 -89 -80c-20 -28 -48 -83 -48 -118
c0 -13 6 -27 22 -27c34 0 70 56 81 86zM194 456l48 61c7 12 15 22 30 22c10 0 20 -9 20 -18c0 -16 -39 -61 -49 -74c-10 -12 -34 -45 -52 -45c-11 0 -16 10 -16 19c0 13 12 26 19 35z" />
    <glyph glyph-name="ocircumflex" unicode="&#xf4;" horiz-adv-x="245" 
d="M207 373c32 0 44 -21 44 -51c0 -56 -31 -119 -59 -167c-27 -47 -77 -121 -138 -121c-34 0 -51 31 -51 62c0 58 34 130 68 176c28 37 86 101 136 101zM156 178c-5 4 -14 10 -14 17s63 65 63 104c0 10 -5 18 -15 18c-26 0 -75 -61 -89 -80c-20 -28 -48 -83 -48 -118
c0 -13 6 -27 22 -27c34 0 70 56 81 86zM153 440c7 21 70 56 92 55c19 -1 68 -61 68 -83c0 -9 -11 -20 -21 -20c-26 0 -42 49 -51 47c-19 7 -51 -34 -75 -25c-10 4 -16 18 -13 26z" />
    <glyph glyph-name="odieresis" unicode="&#xf6;" horiz-adv-x="245" 
d="M207 373c32 0 44 -21 44 -51c0 -56 -31 -119 -59 -167c-27 -47 -77 -121 -138 -121c-34 0 -51 31 -51 62c0 58 34 130 68 176c28 37 86 101 136 101zM156 178c-5 4 -14 10 -14 17s63 65 63 104c0 10 -5 18 -15 18c-26 0 -75 -61 -89 -80c-20 -28 -48 -83 -48 -118
c0 -13 6 -27 22 -27c34 0 70 56 81 86zM188 530c15 0 24 -10 24 -24c0 -26 -35 -73 -63 -73c-14 0 -23 10 -23 24c0 25 36 73 62 73zM295 530c15 0 24 -10 24 -24c0 -26 -35 -73 -63 -73c-14 0 -23 10 -23 24c0 25 36 73 62 73z" />
    <glyph glyph-name="ograve" unicode="&#xf2;" horiz-adv-x="245" 
d="M207 373c32 0 44 -21 44 -51c0 -56 -31 -119 -59 -167c-27 -47 -77 -121 -138 -121c-34 0 -51 31 -51 62c0 58 34 130 68 176c28 37 86 101 136 101zM156 178c-5 4 -14 10 -14 17s63 65 63 104c0 10 -5 18 -15 18c-26 0 -75 -61 -89 -80c-20 -28 -48 -83 -48 -118
c0 -13 6 -27 22 -27c34 0 70 56 81 86zM174 517l48 -61c7 -9 19 -22 19 -35c0 -9 -5 -19 -16 -19c-18 0 -42 33 -52 45c-10 13 -49 58 -49 74c0 9 10 18 20 18c15 0 23 -10 30 -22z" />
    <glyph glyph-name="otilde" unicode="&#xf5;" horiz-adv-x="245" 
d="M207 373c32 0 44 -21 44 -51c0 -56 -31 -119 -59 -167c-27 -47 -77 -121 -138 -121c-34 0 -51 31 -51 62c0 58 34 130 68 176c28 37 86 101 136 101zM156 178c-5 4 -14 10 -14 17s63 65 63 104c0 10 -5 18 -15 18c-26 0 -75 -61 -89 -80c-20 -28 -48 -83 -48 -118
c0 -13 6 -27 22 -27c34 0 70 56 81 86zM163 514c26 4 47 -7 74 -22c9 -5 24 -22 50 -26c28 -8 45 34 58 34c8 0 13 -10 13 -20c0 -42 -51 -68 -75 -58s-46 18 -64 34c-11 10 -50 38 -64 8c-12 -26 -32 -20 -32 6c0 28 25 42 40 44z" />
    <glyph glyph-name="scaron" unicode="&#x161;" horiz-adv-x="268" 
d="M234 382c32 0 65 -9 64 -45c-2 -86 -106 -110 -127 -111c-12 0 -21 6 -21 18c0 19 16 22 30 25c23 5 66 17 66 47c0 15 -12 22 -25 22c-36 1 -107 -36 -107 -89c0 -26 14 -48 29 -69c14 -22 28 -43 28 -71c0 -53 -46 -88 -96 -88c-54 0 -93 38 -93 93c0 25 14 87 47 87
c6 0 14 -3 14 -10c0 -5 -16 -34 -16 -64c0 -31 24 -58 55 -58c24 0 40 18 40 41c0 24 -15 43 -29 64c-15 21 -30 45 -30 76c0 81 101 132 171 132zM286 472c-7 -21 -70 -56 -92 -55c-19 1 -68 61 -68 83c0 9 11 20 21 20c26 0 42 -49 51 -47c19 -7 51 34 75 25
c10 -4 16 -18 13 -26z" />
    <glyph glyph-name="uacute" unicode="&#xfa;" horiz-adv-x="274" 
d="M141 119c-23 -30 -56 -83 -97 -83c-36 0 -50 32 -50 63c-1 81 99 231 140 229c10 0 20 -8 20 -18c0 -18 -44 -51 -83 -123c-9 -17 -27 -60 -27 -80c0 -7 5 -15 14 -15c36 0 97 114 108 146c8 22 29 79 59 79c11 0 20 -12 20 -22c0 -42 -59 -99 -59 -159
c0 -29 9 -54 35 -68c11 -6 21 -12 21 -27c0 -16 -15 -23 -29 -23c-24 0 -49 19 -59 40c-10 18 -11 40 -13 61zM209 446l48 61c7 12 15 22 30 22c10 0 20 -9 20 -18c0 -16 -39 -61 -49 -74c-10 -12 -34 -45 -52 -45c-11 0 -16 10 -16 19c0 13 12 26 19 35z" />
    <glyph glyph-name="ucircumflex" unicode="&#xfb;" horiz-adv-x="274" 
d="M141 119c-23 -30 -56 -83 -97 -83c-36 0 -50 32 -50 63c-1 81 99 231 140 229c10 0 20 -8 20 -18c0 -18 -44 -51 -83 -123c-9 -17 -27 -60 -27 -80c0 -7 5 -15 14 -15c36 0 97 114 108 146c8 22 29 79 59 79c11 0 20 -12 20 -22c0 -42 -59 -99 -59 -159
c0 -29 9 -54 35 -68c11 -6 21 -12 21 -27c0 -16 -15 -23 -29 -23c-24 0 -49 19 -59 40c-10 18 -11 40 -13 61zM143 430c7 21 70 56 92 55c19 -1 68 -61 68 -83c0 -9 -11 -20 -21 -20c-26 0 -42 49 -51 47c-19 7 -51 -34 -75 -25c-10 4 -16 18 -13 26z" />
    <glyph glyph-name="udieresis" unicode="&#xfc;" horiz-adv-x="274" 
d="M141 119c-23 -30 -56 -83 -97 -83c-36 0 -50 32 -50 63c-1 81 99 231 140 229c10 0 20 -8 20 -18c0 -18 -44 -51 -83 -123c-9 -17 -27 -60 -27 -80c0 -7 5 -15 14 -15c36 0 97 114 108 146c8 22 29 79 59 79c11 0 20 -12 20 -22c0 -42 -59 -99 -59 -159
c0 -29 9 -54 35 -68c11 -6 21 -12 21 -27c0 -16 -15 -23 -29 -23c-24 0 -49 19 -59 40c-10 18 -11 40 -13 61zM203 490c15 0 24 -10 24 -24c0 -26 -35 -73 -63 -73c-14 0 -23 10 -23 24c0 25 36 73 62 73zM310 490c15 0 24 -10 24 -24c0 -26 -35 -73 -63 -73
c-14 0 -23 10 -23 24c0 25 36 73 62 73z" />
    <glyph glyph-name="ugrave" unicode="&#xf9;" horiz-adv-x="274" 
d="M141 119c-23 -30 -56 -83 -97 -83c-36 0 -50 32 -50 63c-1 81 99 231 140 229c10 0 20 -8 20 -18c0 -18 -44 -51 -83 -123c-9 -17 -27 -60 -27 -80c0 -7 5 -15 14 -15c36 0 97 114 108 146c8 22 29 79 59 79c11 0 20 -12 20 -22c0 -42 -59 -99 -59 -159
c0 -29 9 -54 35 -68c11 -6 21 -12 21 -27c0 -16 -15 -23 -29 -23c-24 0 -49 19 -59 40c-10 18 -11 40 -13 61zM189 507l48 -61c7 -9 19 -22 19 -35c0 -9 -5 -19 -16 -19c-18 0 -42 33 -52 45c-10 13 -49 58 -49 74c0 9 10 18 20 18c15 0 23 -10 30 -22z" />
    <glyph glyph-name="yacute" unicode="&#xfd;" horiz-adv-x="356" 
d="M223 262l26 36c10 14 33 50 53 50c12 0 22 -11 22 -23c0 -17 -12 -36 -20 -50c-35 -59 -71 -118 -95 -183c35 18 99 83 116 116c4 8 9 21 20 21c8 0 15 -7 15 -15c0 -23 -37 -70 -51 -86c-37 -42 -84 -78 -133 -105c-39 -88 -117 -299 -232 -299c-38 0 -64 33 -64 70
c0 72 56 146 252 251c19 48 44 93 65 137l-2 2c-34 -41 -104 -131 -162 -131c-21 0 -35 17 -35 37c0 47 40 113 66 149c15 20 68 94 96 94c11 0 22 -9 22 -21c0 -17 -16 -32 -27 -43c-23 -24 -96 -105 -96 -138c0 -8 5 -12 12 -12c33 0 132 116 152 143zM89 -48l14 30
c-57 -27 -170 -111 -170 -178c0 -15 11 -26 26 -26c45 0 89 84 104 119zM238 446l48 61c7 12 15 22 30 22c10 0 20 -9 20 -18c0 -16 -39 -61 -49 -74c-10 -12 -34 -45 -52 -45c-11 0 -16 10 -16 19c0 13 12 26 19 35z" />
    <glyph glyph-name="ydieresis" unicode="&#xff;" horiz-adv-x="356" 
d="M223 262l26 36c10 14 33 50 53 50c12 0 22 -11 22 -23c0 -17 -12 -36 -20 -50c-35 -59 -71 -118 -95 -183c35 18 99 83 116 116c4 8 9 21 20 21c8 0 15 -7 15 -15c0 -23 -37 -70 -51 -86c-37 -42 -84 -78 -133 -105c-39 -88 -117 -299 -232 -299c-38 0 -64 33 -64 70
c0 72 56 146 252 251c19 48 44 93 65 137l-2 2c-34 -41 -104 -131 -162 -131c-21 0 -35 17 -35 37c0 47 40 113 66 149c15 20 68 94 96 94c11 0 22 -9 22 -21c0 -17 -16 -32 -27 -43c-23 -24 -96 -105 -96 -138c0 -8 5 -12 12 -12c33 0 132 116 152 143zM89 -48l14 30
c-57 -27 -170 -111 -170 -178c0 -15 11 -26 26 -26c45 0 89 84 104 119zM244 490c15 0 24 -10 24 -24c0 -26 -35 -73 -63 -73c-14 0 -23 10 -23 24c0 25 36 73 62 73zM351 490c15 0 24 -10 24 -24c0 -26 -35 -73 -63 -73c-14 0 -23 10 -23 24c0 25 36 73 62 73z" />
    <glyph glyph-name="zcaron" unicode="&#x17e;" horiz-adv-x="231" 
d="M174 306l-74 -7c-19 0 -51 3 -51 28c0 14 8 23 22 23c6 0 32 -6 49 -6c31 0 57 3 87 10c9 2 18 4 27 4c13 0 29 -10 29 -25c0 -19 -15 -28 -31 -40c-119 -92 -152 -129 -191 -193c26 9 52 16 81 16c21 0 60 -2 60 -31c0 -12 -11 -25 -23 -25c-13 0 -28 8 -46 8
c-58 0 -99 -32 -118 -32c-13 0 -30 8 -30 23c0 45 160 214 211 245zM247 462c-7 -21 -70 -56 -92 -55c-19 1 -68 61 -68 83c0 9 11 20 21 20c26 0 42 -49 51 -47c19 -7 51 34 75 25c10 -4 16 -18 13 -26z" />
    <glyph glyph-name="Euro" unicode="&#x20ac;" horiz-adv-x="324" 
d="M415 451h-16c12 35 4 58 -41 58c-58 0 -113 -58 -182 -190h144l-21 -24h-135c-3 -7 -8 -16 -11 -23c-4 -7 -10 -20 -13 -26h116l-21 -25h-107c-59 -128 -64 -193 -4 -193c38 0 71 17 96 58h18l-26 -49c-27 -21 -59 -37 -116 -37c-96 0 -100 71 -35 221h-49l21 25h38
c3 6 9 20 13 27c3 7 7 14 11 22h-47l21 24h39c83 155 155 218 250 218c62 0 75 -20 79 -37z" />
    </font>
</defs>
</svg>
